.
Авторизация | Регистрация
Хочешь лучшие торренты? Добавь свой email!
Добавить
» » Звездные врата ЗВ-1 / Stargate SG-1 (2005-2006) WEB-DLRip от Generalfilm | КПК | ТВ3 скачать торрент бесплатно




    Звездные врата ЗВ-1 / Stargate SG-1 (2005-2006) WEB-DLRip от Generalfilm | КПК | ТВ3 скачать торрент бесплатно

    Опубликовал: Админ | Дата: 27-02-2015, 11:09 | Просмотров: 457


    Информация о фильме
    Название: Звездные врата ЗВ-1
    Оригинальное название: Stargate SG-1
    Год выхода: 2005
    Жанр: Фантастика, боевик, фэнтези, приключение, драма
    Режиссер: Марио Аццопарди, Дэннис Берри, Уильям Джерегти, Кен Джиротти, Чарльз Коррелл, Брэд Тернер, Джонатан Гласснер, Мартин Вуд, Дэвид Уарри-Смит
    В ролях: Аманда Таппинг, Кристофер Джадж, Майкл Шэнкс, Ричард Дин Андерсон, Дон С. Дэвис, Терил Ротери, Тони Амендола, Питер Уильямс, Гари Джонс, Пол Хусон, Том МакБет, Ронни Кокс, Нил Дэнис, Джей Аковоне, Алексис Крус, Гарвин Санфорд, Джей Бразо

    О фильме:
    Звёздные врата SG-1 (англ. Stargate SG-1) - научно-фантастический телевизионный сериал, созданный Брэдом Райтом и Джонатаном Гласснером по мотивам фильма 1994 года Звёздные врата Дина Девлина и Роланда Эммериха. Действие сериала начинается спустя год после событий художественного фильма. Сеть устройств, созданных инопланетной расой древних и называемых звёздными вратами, связывает между собой несколько галактик и позволяет мгновенно перемещаться между различными мирами. Сериал охватывает большую часть мифологии (египетская, норвежская, легенды о короле Артуре) древних народов Земли. Спустя год после эпохальной фантастической миссии вновь собирается команда полковника Джека О`Нилла. Вместе со своими верными спутниками Ковальским и Ферретти он должен отправиться через Звездные Врата на планету Эбидос. Им предстоит узнать, насколько опасны обитатели этой планеты. Агрессивно настроенные по отношению к землянам, они могут легко переправиться на Землю через свои Звездные Врата. С помощью нового участника экспедиции - женщины - астрофизика Саманты Картер и постоянного члена команды египтолога Дэниела Джексона, ныне живущего на Абидосе, полковник О`Нилл делает невероятное открытие: Звездные Врата планеты Эбидос являются лишь частицей огромной системы Звездных Врат, разбросанных по всей Вселенной. Это открытие приводит их на обитаемую планету Чулак, где их подстерегают новые космические враги.



    Страна: США, Канада
    Студия: Double Secret Productions, Gekko Film Corp., Kawoosh! Productions IX, Kawoosh! Productions VII, MGM Worldwide Television Productions Inc., Sony Pictures Television, Stargate SG-1 Production (II) Inc.
    Продолжительность: 20 x ~00:43:30
    Перевод: Профессиональный (многоголосый, закадровый) ТВ3

    Файл
    Формат: MP4
    Качество: WEB-DLRip | КПК
    Видео: MPEG-4 AVC (x264), 640x360, ~500 kbps, 25.000 fps
    Аудио: AAC LC, 48.0 KHz, 2 ch, 128 Kbps
    Субтитры: Нет

    Семпл

    Скриншоты

    MI
    K:киноZvjozdnye.Vrata.AVC.KPK.GeneralfilmZvjozdnye.Vrata.ZV-1.S09.2007.AVC.WEB-DLRip.KPK.GeneralfilmZvjozdnye.Vrata.ZV-1.s09e10.2007.AVC.WEB-DLRip.KPK.Generalfilm.mp4
    Format : MPEG-4
    Format profile : Base Media
    Codec ID : isom
    File size : 197 MiB
    Duration : 43mn 41s
    Overall bit rate mode : Variable
    Overall bit rate : 630 Kbps
    Encoded date : UTC 2013-08-14 18:04:10
    Tagged date : UTC 2013-08-14 18:04:10
    Video #1
    ID : 1
    Format : AVC
    Format/Info : Advanced Video Codec
    Format profile : Baseline@L4.1
    Format settings, CABAC : No
    Format settings, ReFrames : 6 frames
    Codec ID : avc1
    Codec ID/Info : Advanced Video Coding
    Duration : 43mn 39s
    Bit rate : 500 Kbps
    Maximum bit rate : 2 799 Kbps
    Width : 640 pixels
    Height : 360 pixels
    Display aspect ratio : 16:9
    Frame rate mode : Constant
    Frame rate : 23.976 fps
    Color space : YUV
    Chroma subsampling : 4:2:0
    Bit depth : 8 bits
    Scan type : Progressive
    Bits/(Pixel*Frame) : 0.091
    Stream size : 156 MiB (79%)
    Writing library : x264 core 119 r2106 07efeb4
    Encoding settings : cabac=0 / ref=6 / deblock=1:-1:-1 / analyse=0x1:0x111 / me=umh / subme=7 / psy=1 / psy_rd=1.00:0.00 / mixed_ref=0 / me_range=16 / chroma_me=1 / trellis=1 / 8x8dct=0 / cqm=0 / deadzone=21,11 / fast_pskip=0 / chroma_qp_offset=-2 / threads=3 / sliced_threads=0 / nr=0 / decimate=1 / interlaced=0 / bluray_compat=0 / constrained_intra=0 / bframes=0 / weightp=0 / keyint=250 / keyint_min=23 / scenecut=40 / intra_refresh=0 / rc_lookahead=60 / rc=2pass / mbtree=1 / bitrate=500 / ratetol=1.0 / qcomp=0.60 / qpmin=0 / qpmax=69 / qpstep=4 / cplxblur=20.0 / qblur=0.5 / ip_ratio=1.40 / aq=1:1.00
    Encoded date : UTC 2013-08-14 18:04:10
    Tagged date : UTC 2013-08-14 18:04:32
    Audio #2
    ID : 2
    Format : AAC
    Format/Info : Advanced Audio Codec
    Format profile : LC
    Codec ID : 40
    Duration : 43mn 41s
    Bit rate mode : Variable
    Bit rate : 128 Kbps
    Maximum bit rate : 146 Kbps
    Channel(s) : 2 channels
    Channel positions : Front: L R
    Sampling rate : 48.0 KHz
    Compression mode : Lossy
    Stream size : 40.0 MiB (20%)
    Encoded date : UTC 2013-08-14 18:04:26
    Tagged date : UTC 2013-08-14 18:04:32

    Релиз от:
    Залил: toys_watch
    Размер: 3.84 GB (4125733728 Bytes)
    загрузка...
    Рейтинг →
     (голосов: 1, оценка 5/5, голосовать можно 1 раз )

    Другие торренты по теме:

  • Звездные врата / Stargate (1994) BDRip-AVC | P | Режиссёрская версия / Directors Cut
  • Звездные врата: Вселенная / Stargate Universe (2009-2011) WEB-DLRip | ТВ3
  • Звездные врата / Stargate (1994) HDRip от Generalfilm | КПК | Directors Cut
  • Звездные врата ЗВ-1 / Stargate SG-1 (1997-1998) DVDRip от Generalfilm | КПК | ТВ3
  • Звездные врата ЗВ-1 / Stargate SG-1 (2006-2007) WEB-DLRip от Generalfilm | КПК | ТВ3
  • Звездные врата: Атлантида / Stargate: Atlantis (2004-2005) HDRip от Generalfilm | КПК | ТВ3
  • Звездные врата: Атлантида / Stargate: Atlantis (2005-2006) HDRip от Generalfilm | КПК | ТВ3
  • Звездные врата: Атлантида / Stargate: Atlantis (2006-2007) HDRip от Generalfilm | КПК | ТВ3


    • Комментарии (0):

      Информация

      Информация

        Посетители, находящиеся в группе Гости, не могут оставлять комментарии в данной новости.

        ↓ Меню



        ↓ Опрос

        А Вы добавили сайт в закладки?
        Да
        Не


        Top 10 за месяц (Фильмы)