.
Авторизация | Регистрация
Хочешь лучшие торренты? Добавь свой email!
Добавить
» » Вертикальный предел / Vertical Limit (2000) DVD5 | D, P скачать торрент бесплатно




    Вертикальный предел / Vertical Limit (2000) DVD5 | D, P скачать торрент бесплатно

    Опубликовал: Админ | Дата: 27-02-2015, 11:09 | Просмотров: 342



    Информация о фильме
    Название: Вертикальный предел
    Оригинальное название: Vertical Limit
    Год выхода: 2000
    Жанр: боевик, триллер, приключения
    Режиссер: Мартин Кэмпбелл
    В ролях: Крис О’Доннелл, Билл Пэкстон, Робин Танни, Скотт Гленн, Изабелла Скорупко, Темуэра Моррисон, Стюарт Уилсон, Рошан Сет, Бен Мендельсон, Роберт Тейлор

    О фильме:
    Группа альпинистов оказалась погребенной заживо в расщелине у вершины К-2, второй после Эвереста горы мира. На такой высоте им оставалось жить считанные часы.

    Шестеро отчаянных смельчаков решают подняться на роковую отметку, чтобы вызволить их из ледяной могилы. Но для этого им придется обогнать свою главную соперницу, которая уже спускается по склонам удушающим холодом и неожиданными лавинами — саму смерть.




    Страна: США, Германия
    Студия: Columbia Pictures Corporation
    Продолжительность: 124 мин. / 02:04
    Перевод: - полное дублирование
    - многоголосый, закадровый

    Файл
    Кодек: MPEG2
    Качество: DVD5
    Видео: PAL 16:9 (720x576) VBR 4009 Kbps, 25.000 fps
    Звук: Dolby AC3, 6 ch, 48.0 KHz, 448 Kbps
    Субтитры: русские, английские, хинди

    MediaInfo
    General
    Complete name : D:VERTICAL PREDELVIDEO_TSVTS_01_1.VOB
    Format : MPEG-PS
    File size : 1 024 MiB
    Duration : 26mn 12s
    Overall bit rate mode : Variable
    Overall bit rate : 5 462 Kbps

    Video
    ID : 224 (0xE0)
    Format : MPEG Video
    Format version : Version 2
    Format profile : Main@Main
    Format settings, BVOP : No
    Format settings, Matrix : Custom
    Format settings, GOP : M=3, N=12
    Duration : 26mn 12s
    Bit rate mode : Variable
    Bit rate : 4 009 Kbps
    Maximum bit rate : 9 800 Kbps
    Width : 720 pixels
    Height : 576 pixels
    Display aspect ratio : 16:9
    Frame rate : 25.000 fps
    Standard : PAL
    Color space : YUV
    Chroma subsampling : 4:2:0
    Bit depth : 8 bits
    Scan type : Progressive
    Scan order : Top Field First
    Compression mode : Lossy
    Bits/(Pixel*Frame) : 0.387
    Time code of first frame : 00:00:00:00
    Time code source : Group of pictures t_head
    Stream size : 752 MiB (73%)

    Audio #1
    ID : 189 (0xBD)-128 (0x80)
    Format : AC-3
    Format/Info : Audio Coding 3
    Mode extension : CM (complete main)
    Format settings, Endianness : Big
    Muxing mode : DVD-Video
    Duration : 26mn 12s
    Bit rate mode : Constant
    Bit rate : 448 Kbps
    Channel count : 6 channels
    Channel positions : Front: L C R, Side: L R, LFE
    Sampling rate : 48.0 KHz
    Bit depth : 16 bits
    Compression mode : Lossy
    Stream size : 84.0 MiB (8%)

    Audio #2
    ID : 189 (0xBD)-129 (0x81)
    Format : AC-3
    Format/Info : Audio Coding 3
    Mode extension : CM (complete main)
    Format settings, Endianness : Big
    Muxing mode : DVD-Video
    Duration : 26mn 12s
    Bit rate mode : Constant
    Bit rate : 448 Kbps
    Channel count : 6 channels
    Channel positions : Front: L C R, Side: L R, LFE
    Sampling rate : 48.0 KHz
    Bit depth : 16 bits
    Compression mode : Lossy
    Stream size : 84.0 MiB (8%)

    Audio #3
    ID : 189 (0xBD)-130 (0x82)
    Format : AC-3
    Format/Info : Audio Coding 3
    Mode extension : CM (complete main)
    Format settings, Endianness : Big
    Muxing mode : DVD-Video
    Duration : 26mn 12s
    Bit rate mode : Constant
    Bit rate : 448 Kbps
    Channel count : 6 channels
    Channel positions : Front: L C R, Side: L R, LFE
    Sampling rate : 48.0 KHz
    Bit depth : 16 bits
    Compression mode : Lossy
    Stream size : 84.0 MiB (8%)

    Text #1
    ID : 189 (0xBD)-32 (0x20)
    Format : RLE
    Format/Info : Run-length encoding
    Muxing mode : DVD-Video

    Text #2
    ID : 189 (0xBD)-33 (0x21)
    Format : RLE
    Format/Info : Run-length encoding
    Muxing mode : DVD-Video

    Text #3
    ID : 189 (0xBD)-34 (0x22)
    Format : RLE
    Format/Info : Run-length encoding
    Muxing mode : DVD-Video

    Menu

    Скриншоты

    Залил: carisha
    Размер: 4.31 GB (4624992256 Bytes)
    загрузка...
    Рейтинг →
     (голосов: 1, оценка 5/5, голосовать можно 1 раз )

    Другие торренты по теме:

  • OST - Вертикальный предел / Vertical Limit (2000) MP3
  • Вертикальный предел / Vertical Limit (2000) BDRip 1080p
  • Вертикальный предел / Vertical Limit (2000) BDRip | D скачать через торрент бесплатно
  • Вертикальный предел / Vertical Limit (2000) Blu-Ray скачать через торрент бесплатно


    • Комментарии (0):

      Информация

      Информация

        Посетители, находящиеся в группе Гости, не могут оставлять комментарии в данной новости.

        ↓ Меню



        ↓ Опрос

        А Вы добавили сайт в закладки?
        Да
        Не


        Top 10 за месяц (Фильмы)