.
Авторизация | Регистрация
Хочешь лучшие торренты? Добавь свой email!
Добавить
» » Как выбрать королевскую невесту / Tian guan ci fu (1985) DVDRip от ikusha76 | L1 скачать торрент бесплатно




    Как выбрать королевскую невесту / Tian guan ci fu (1985) DVDRip от ikusha76 | L1 скачать торрент бесплатно

    Опубликовал: Админ | Дата: 27-02-2015, 11:09 | Просмотров: 315



    Информация о фильме
    Название: Как выбрать королевскую невесту
    Оригинальное название: Tian guan ci fu
    Год выхода: 1985
    Жанр: комедия, боевые искусства
    Режиссер: Чин-Ку Лу
    В ролях: Леунг Ка Ян, Джой Вон, Ло Лье, Билл Тун, Чень Куань Тай, Вон Юй, Дерек Йи, Чен Сиу Пин, Ай Ти, Ку Фэн, Танни Тьен, Кун До

    О фильме:
    Когда император Кан Си вступил на трон, вдовствующая императрица решила найти ему невесту.Во дворце собрались самые красивые девушки со всей страны,но ни одна из них не пленила сердце молодого императора.Чтобы развеять скуку,Кан Си решил отправиться в Цзян Нань под видом богатого мастера с двумя верными слугами.Много приключений произошло на их пути.Кан Си спас невинного человека от казни,разубедил самоубийцу,поймал грабителей,раскрыл заговор против самого себя и конечно же встретил настоящую любовь.



    Страна: Китай, Гонконг
    Студия: Shaw Brothers
    Продолжительность: 01:31:52
    Перевод: Любительский одноголосый закадровый (Jet)

    Файл
    Кодек: XviD
    Качество: DVDRip
    Видео: 720x304, 23.976 fps, 2072 kbps avg, 0.40 bit/pixel
    Звук: MPEG layer 3, 2 ch, 192 kbps
    Субтитры: нет

    MI
    Формат : AVI
    Формат/Информация : Audio Video Interleave
    Размер файла : 1,46 Гбайт
    Продолжительность : 1 ч. 31 м.
    Общий поток : 2274 Кбит/сек
    Программа кодирования : VirtualDubMod 1.5.10.3 | www.virtualdub-fr.org || (build 2550/release)
    Библиотека кодирования : VirtualDubMod build 2550/release

    Видео
    Идентификатор : 0
    Формат : MPEG-4 Visual
    Профиль формата : Advanced Simple@L5
    Параметр BVOP формата : 1
    Параметр QPel формата : Нет
    Параметр GMC формата : Без точки перехода
    Параметр матрицы формата : Выборочная
    Идентификатор кодека : XVID
    Идентификатор кодека/Подсказка : XviD
    Продолжительность : 1 ч. 31 м.
    Битрейт : 2073 Кбит/сек
    Ширина : 720 пикселей
    Высота : 304 пикселя
    Соотношение сторон : 2,35:1
    Частота кадров : 23,976 кадра/сек
    Цветовое пространство : YUV
    Субдискретизация насыщенности : 4:2:0
    Битовая глубина : 8 бит
    Тип развёртки : Прогрессивная
    Метод сжатия : С потерями
    Бит/(Пиксели*Кадры) : 0.395
    Размер потока : 1,33 Гбайт (91%)
    Библиотека кодирования : XviD 73

    Аудио
    Идентификатор : 1
    Формат : MPEG Audio
    Версия формата : Version 1
    Профиль формата : Layer 3
    Идентификатор кодека : 55
    Идентификатор кодека/Подсказка : MP3
    Продолжительность : 1 ч. 31 м.
    Вид битрейта : Постоянный
    Битрейт : 192 Кбит/сек
    Каналы : 2 канала
    Частота : 48,0 КГц
    Метод сжатия : С потерями
    Размер потока : 126 Мбайт (8%)
    Выравнивание : Соединение по промежуткам
    Продолжительность промежутка : 42 мс. (1,00 видеокадр)
    Время предзагрузки промежутка : 504 мс.
    Библиотека кодирования : L3.99r
    Залил: ikusha76
    Размер: 1.46 GB (1566984192 Bytes)

    загрузка...
    Рейтинг →
     (голосов: 1, оценка 5/5, голосовать можно 1 раз )

    Другие торренты по теме:

  • Они и мы. Как выбрать женщину (2014) HDTVRip 720p от waPBX скачать через торрент бесплатно


    • Комментарии (0):

      Информация

      Информация

        Посетители, находящиеся в группе Гости, не могут оставлять комментарии в данной новости.

        ↓ Меню



        ↓ Опрос

        А Вы добавили сайт в закладки?
        Да
        Не


        Top 10 за месяц (Фильмы)