.
Авторизация | Регистрация
Хочешь лучшие торренты? Добавь свой email!
Добавить
» » Колония / The Colony (2013) WEB-DL 1080p | L2 скачать торрент бесплатно




    Колония / The Colony (2013) WEB-DL 1080p | L2 скачать торрент бесплатно

    Опубликовал: Админ | Дата: 27-02-2015, 11:09 | Просмотров: 676



    Информация о фильме
    Название: Колония
    Оригинальное название: The Colony
    Год выпуска: 2013
    Жанр: Фантастика, боевик, триллер
    Режиссер: Джефф Ренфро
    В ролях: Лоуренс Фишборн, Кевин Зегерс, Билл Пэкстон, Шарлотта Салливан, Джон Тенч, Аттикус Дин Митчелл, Дрю Вигевер, Романо Орзари, Эрл Паско, Лиза Берри

    О фильме: После природного катаклизма, под ледяной поверхностью, покрывшей Землю, оставшиеся в живых люди собрались в Колонию 7 и пытаются выжить несмотря на сокращающиеся запасы продовольствия. Они еще поддерживают связь с Колонией 5, но после того, как контакт с ними теряется, группа смельчаков отправляется в опасную экспедицию, чтобы выяснить, что произошло с их соседями. Преодолев тяжелейший путь герои сталкиваются с опасностью во много раз превосходящую природную угрозу холода…



    Выпущено: Канада, Alcina Pictures, Item 7, Mad Samurai Productions
    Продолжительность: 01:34:17
    Перевод: Любительский (двухголосый, закадровый)

    Файл
    Качество: WEB-DL 1080p
    Формат: MKV
    Видео: MPEG-4 AVC, 1916x812 (2,35:1), 4651 Кбит/с
    Аудио 1: Русский, AC3, 6 ch, 448 Кбит/с
    Аудио 2: Английский, AC3, 6 ch, 384 Кбит/с
    Субтитры: Английские (UTF-8)
    Навигация по главам: Есть

    MediaInfo:
    Общее
    Уникальный идентификатор : 242238311595736134374998245948083709374 (0xB63D66DC3BE433D3B9299C2D89D8A5BE)
    Полное имя : The.Colony.2013.1080p.WEB-DL.H264.mkv
    Формат : Matroska
    Версия формата : Version 2
    Размер файла : 3,68 Гбайт
    Продолжительность : 1 ч. 34 м.
    Общий поток : 5595 Кбит/сек
    Дата кодирования : UTC 2013-08-25 14:23:23
    Программа кодирования : mkvmerge v5.8.0 (;No Sleep / Pillow;) built on Sep 2 2012 15:37:04
    Библиотека кодирования : libebml v1.2.3 libmatroska v1.3.0

    Видео
    Идентификатор : 1
    Формат : AVC
    Формат/Информация : Advanced Video Codec
    Профиль формата : High@L4.0
    Параметр CABAC формата : Да
    Параметр ReFrames формата : 5 кадров
    Идентификатор кодека : V_MPEG4/ISO/AVC
    Продолжительность : 1 ч. 34 м.
    Битрейт : 4651 Кбит/сек
    Ширина : 1916 пикселей
    Высота : 812 пикселей
    Соотношение сторон : 2,35:1
    Режим частоты кадров : Постоянный
    Частота кадров : 23,976 кадра/сек
    Цветовое пространство : YUV
    Субдискретизация насыщенности : 4:2:0
    Битовая глубина : 8 бит
    Тип развёртки : Прогрессивная
    Бит/(Пиксели*Кадры) : 0.125
    Размер потока : 3,06 Гбайт (83%)
    Язык : English
    Default : Да
    Forced : Нет
    Основные цвета : BT.709
    Характеристики трансфера : BT.709
    Коэффициенты матрицы : BT.709

    Аудио #1
    Идентификатор : 2
    Формат : AC-3
    Формат/Информация : Audio Coding 3
    Расширение режима : CM (complete main)
    Параметр Endianness формата : Big
    Идентификатор кодека : A_AC3
    Продолжительность : 1 ч. 34 м.
    Вид битрейта : Постоянный
    Битрейт : 448 Кбит/сек
    Каналы : 6 каналов
    Расположение каналов : Front: L C R, Side: L R, LFE
    Частота : 48,0 КГц
    Битовая глубина : 16 бит
    Метод сжатия : С потерями
    Размер потока : 302 Мбайт (8%)
    Язык : Russian
    Default : Да
    Forced : Нет

    Аудио #2
    Идентификатор : 3
    Формат : AC-3
    Формат/Информация : Audio Coding 3
    Расширение режима : CM (complete main)
    Параметр Endianness формата : Big
    Идентификатор кодека : A_AC3
    Продолжительность : 1 ч. 34 м.
    Вид битрейта : Постоянный
    Битрейт : 384 Кбит/сек
    Каналы : 6 каналов
    Расположение каналов : Front: L C R, Side: L R, LFE
    Частота : 48,0 КГц
    Битовая глубина : 16 бит
    Метод сжатия : С потерями
    Размер потока : 259 Мбайт (7%)
    Язык : English
    Default : Нет
    Forced : Нет

    Текст
    Идентификатор : 4
    Формат : UTF-8
    Идентификатор кодека : S_TEXT/UTF8
    Идентификатор кодека/Информация : UTF-8 Plain Text
    Язык : English
    Default : Нет
    Forced : Нет

    Меню
    00:00:00.000 : en:1
    00:06:19.000 : en:2
    00:13:54.000 : en:3
    00:21:01.000 : en:4
    00:31:47.000 : en:5
    00:38:28.000 : en:6
    00:51:28.000 : en:7
    00:56:37.000 : en:8
    01:04:11.000 : en:9
    01:12:21.000 : en:10
    01:19:53.000 : en:11
    01:25:38.000 : en:12

    Скриншоты:


    Релиз от:
    Размер: 3.68 GB (3956141294 Bytes)
    загрузка...
    Рейтинг →
     (голосов: 1, оценка 5/5, голосовать можно 1 раз )

    Другие торренты по теме:

  • Колония / Double Team (1997) HDTVRip
  • Колония / The Colony (2013) DVDRip | L2
  • Колония / The Colony (2013) WEB-DL 720p | L2
  • Колония / The Colony (2013) WEB-DLRip-AVC | L2
  • Колония / The Colony (2013) WEB-DLRip-AVC от ExKinoRay | L2
  • Колония / The Colony (2013) WEB-DLRip от BitTracker | L2
  • Колония / The Colony (2013) WEB-DLRip-AVC от FireBit-Films NoLimits-Team | L2
  • Колония / The Colony (2013) BDRip-AVC от HELLYWOOD | L2


    • Комментарии (0):

      Информация

      Информация

        Посетители, находящиеся в группе Гости, не могут оставлять комментарии в данной новости.

        ↓ Меню



        ↓ Опрос

        А Вы добавили сайт в закладки?
        Да
        Не


        Top 10 за месяц (Фильмы)