.
Авторизация | Регистрация
Хочешь лучшие торренты? Добавь свой email!
Добавить
» » Зелёная кобра / Cobra Verde (1987) BDRip 720p | L1 скачать торрент бесплатно




    Зелёная кобра / Cobra Verde (1987) BDRip 720p | L1 скачать торрент бесплатно

    Опубликовал: Админ | Дата: 27-02-2015, 11:09 | Просмотров: 390



    Название: Зелёная кобра
    Оригинальное название: Cobra Verde
    Год выпуска: 1987
    Жанр: Драма, приключения
    Выпущено: Германия (ФРГ), Гана, Ghana Film Industry Corporation, Werner Herzog Filmproduktion, Zweites Deutsches Fernsehen (ZDF)
    Режиссер: Вернер Херцог
    В ролях: Клаус Кински, король Ампоу, Жозе Левгой, Сальваторе Базиле, Петер Берлинг, Гильермо Коронел, Нана Агьефи Кваме II, Нана Феду Абодо, Кофи Йеренкьи, Квеси Фасе

    О фильме: Авантюрист Франсиску Мануэл да Силва, работающий на оловянных приисках в Бразилии в начале XIX века, убив обидчика, становится бандитом Кобра Верде. Скрываясь от наказания, он попадает в Байию, где, будучи надсмотрщиком на плантациях дона Октавиу Коутинью, соблазняет его дочерей. Разъярённый хозяин отправляет Зелёную Кобру в Западную Африку, в Дагомею на верную смерть, поскольку безумный вождь Дагомеи убивает всех белых. Но предприимчивому Франсиску удаётся не только наладить торговлю рабами, но и победить войско вождя.

    Качество: BDRip 720p
    Видео: MPEG-4 AVC, 5466 Кбит/с, 1280x690
    Аудио: Русский, английский (AC3, 2 ch, 192 Кбит/с), немецкий (AC3, 6 ch, 448 Кбит/с)
    Размер: 4.94 ГБ
    Продолжительность: 01:50:21
    Перевод: Любительский одноголосый
    Субтитры: Русские, английские

    Сравнение с исходником



    Из отзывов...
    Roger Harrison

    Сила на коротком поводке

    Фильм Кобра Верде - последняя совместная работа Клауса Кински и режиссёра Вернера Херцога. После этого фильма Кински сказал: Меня больше нет.
    Кинолента показывает как власть имущие способны иссушить и погубить тех, кто сильнее, но чьё сердце открыто и благородно. Суровый и сильный одиночка стремится к своей мечте. Ради её достижения он не останавливается ни перед чем. Он не боится смерти, не боится замарать руки. Его даже не гнетёт его одинокий путь. Он так с ним смирился, что его не страшит то, что у него нет ни друзей, ни родных. Одиночка, который бредёт по дороге жизни. Он смотрит лишь только вперёд, не замечая, что в его спину уже направлены копья. Он видит только цель, к которой он движется. Но дойдёт ли он?
    Люди пользуются силой и благородством, пользуются теми, кто привык держать слово. В какой-то степени, эта кинолента о том, как силу можно держать на коротком поводке. А потом им же начать душить, когда она исчерпает себя.

    Кинопоиск
    Лог х264
    ---Information 23.08.2013 2:37:20 avs info: 1280x690p 1:1 @ 24000/1001 fps (cfr)
    ---Information 23.08.2013 2:37:20 x264 info: using SAR=1/1
    ---Information 23.08.2013 2:37:20 x264 info: using cpu capabilities: MMX2 SSE2Fast SSSE3 SSE4.2
    ---Information 23.08.2013 2:37:20 x264 info: profile High, level 4.1
    ---Information 23.08.2013 14:17:35 x264 info: frame I:841 Avg QP:20.11 size:112216
    ---Information 23.08.2013 14:17:35 x264 info: frame P:31476 Avg QP:21.52 size: 54047
    ---Information 23.08.2013 14:17:35 x264 info: frame B:126443 Avg QP:23.76 size: 22318
    ---Information 23.08.2013 14:17:35 x264 info: consecutive B-frames: 1.0% 1.0% 4.0% 19.6% 14.1% 52.0% 5.1% 1.0% 2.1%
    ---Information 23.08.2013 14:17:35 x264 info: mb I I16..4: 6.2% 79.3% 14.5%
    ---Information 23.08.2013 14:17:35 x264 info: mb P I16..4: 1.4% 21.4% 2.1% P16..4: 36.7% 25.8% 11.7% 0.0% 0.0% skip: 1.0%
    ---Information 23.08.2013 14:17:35 x264 info: mb B I16..4: 0.2% 2.5% 0.2% B16..8: 42.2% 13.2% 3.7% direct:10.6% skip:27.3% L0:44.0% L1:46.2% BI: 9.8%
    ---Information 23.08.2013 14:17:35 x264 info: 8x8 transform intra:86.0% inter:66.8%
    ---Information 23.08.2013 14:17:35 x264 info: coded y,uvDC,uvAC intra: 88.4% 88.6% 63.4% inter: 38.6% 38.5% 10.5%
    ---Information 23.08.2013 14:17:35 x264 info: i16 v,h,dc,p: 25% 12% 18% 45%
    ---Information 23.08.2013 14:17:35 x264 info: i8 v,h,dc,ddl,ddr,vr,hd,vl,hu: 11% 8% 8% 9% 13% 13% 13% 11% 13%
    ---Information 23.08.2013 14:17:35 x264 info: i4 v,h,dc,ddl,ddr,vr,hd,vl,hu: 17% 5% 3% 8% 14% 15% 14% 11% 12%
    ---Information 23.08.2013 14:17:35 x264 info: i8c dc,h,v,p: 43% 23% 19% 16%
    ---Information 23.08.2013 14:17:35 x264 info: Weighted P-Frames: Y:4.1% UV:2.0%
    ---Information 23.08.2013 14:17:35 x264 info: ref P L0: 36.9% 11.8% 20.3% 7.1% 7.2% 4.8% 5.2% 3.0% 3.4% 0.3% 0.0%
    ---Information 23.08.2013 14:17:35 x264 info: ref B L0: 75.4% 11.0% 5.0% 2.9% 2.1% 1.9% 1.1% 0.5%
    ---Information 23.08.2013 14:17:35 x264 info: ref B L1: 94.6% 5.4%
    ---Information 23.08.2013 14:17:35 x264 info: kb/s:5578.74
    ---Information 23.08.2013 14:17:35 encoded 158760 frames, 3.78 fps, 5578.74 kb/s
    --Information 23.08.2013 14:17:37 Final statistics
    ---Information 23.08.2013 14:17:37 Constant Quality Mode: Quality 20 computed...
    ---Information 23.08.2013 14:17:37 Video Bitrate Obtained (approximate): 5580 kbit/s
    --Information 23.08.2013 14:17:37 MediaInfo
    ---Information File: E:RipKobra.Verde.1987.x264.BDRipKobra.Verde.1987.x264.BDRip.720p.mkv
    MediaInfo
    Общее
    Полное имя : E:VideoKobra.Verde.1987.x264.BDRip.720pKobra.Verde.1987.DUB.eng.ac3
    Формат : AC-3
    Формат/Информация : Audio Coding 3
    Размер файла : 152 Мбайт
    Продолжительность : 1 ч. 50 м.
    Режим общего битрейта : Постоянный
    Общий поток : 192 Кбит/сек

    Аудио
    Формат : AC-3
    Формат/Информация : Audio Coding 3
    Расширение режима : CM (complete main)
    Параметр Endianness формата : Big
    Продолжительность : 1 ч. 50 м.
    Вид битрейта : Постоянный
    Битрейт : 192 Кбит/сек
    Каналы : 2 канала
    Расположение каналов : Front: L R
    Частота : 48,0 КГц
    Битовая глубина : 16 бит
    Метод сжатия : С потерями
    Размер потока : 152 Мбайт (100%)

    Общее
    Полное имя : E:VideoKobra.Verde.1987.x264.BDRip.720pKobra.Verde.1987.eng.srt
    Размер файла : 96,2 Кбайт

    Общее
    Полное имя : E:VideoKobra.Verde.1987.x264.BDRip.720pKobra.Verde.1987.Original.ger.ac3
    Формат : AC-3
    Формат/Информация : Audio Coding 3
    Размер файла : 354 Мбайт
    Продолжительность : 1 ч. 50 м.
    Режим общего битрейта : Постоянный
    Общий поток : 448 Кбит/сек

    Аудио
    Формат : AC-3
    Формат/Информация : Audio Coding 3
    Расширение режима : CM (complete main)
    Параметр Endianness формата : Big
    Продолжительность : 1 ч. 50 м.
    Вид битрейта : Постоянный
    Битрейт : 448 Кбит/сек
    Каналы : 6 каналов
    Расположение каналов : Front: L C R, Side: L R, LFE
    Частота : 48,0 КГц
    Битовая глубина : 16 бит
    Метод сжатия : С потерями
    Размер потока : 354 Мбайт (100%)

    Общее
    Полное имя : E:VideoKobra.Verde.1987.x264.BDRip.720pKobra.Verde.1987.rus.srt
    Размер файла : 77,1 Кбайт

    Общее
    Уникальный идентификатор : 210783398185138682066584390157735750068 (0x9E9367E4C427C1C697B32C36C21AE9B4)
    Полное имя : E:VideoKobra.Verde.1987.x264.BDRip.720pKobra.Verde.1987.x264.BDRip.720p.mkv
    Формат : Matroska
    Версия формата : Version 4 / Version 2
    Размер файла : 4,45 Гбайт
    Продолжительность : 1 ч. 50 м.
    Общий поток : 5773 Кбит/сек
    Название фильма : Кобра Верде (Зелёная кобра) / Cobra Verde / 1987 / BDRip -- STarankov
    Дата кодирования : UTC 2013-08-23 08:24:00
    Программа кодирования : mkvmerge v6.3.0 (;You can;t stop me!;) built on Jun 28 2013 20:09:41
    Библиотека кодирования : libebml v1.3.0 libmatroska v1.4.0

    Видео
    Идентификатор : 1
    Формат : AVC
    Формат/Информация : Advanced Video Codec
    Профиль формата : High@L4.1
    Параметр CABAC формата : Да
    Параметр ReFrames формата : 9 кадров
    Идентификатор кодека : V_MPEG4/ISO/AVC
    Продолжительность : 1 ч. 50 м.
    Битрейт : 5466 Кбит/сек
    Ширина : 1280 пикселей
    Высота : 690 пикселей
    Соотношение сторон : 1,85:1
    Режим частоты кадров : Постоянный
    Частота кадров : 23,976 кадра/сек
    Цветовое пространство : YUV
    Субдискретизация насыщенности : 4:2:0
    Битовая глубина : 8 бит
    Тип развёртки : Прогрессивная
    Бит/(Пиксели*Кадры) : 0.258
    Размер потока : 4,21 Гбайт (95%)
    Библиотека кодирования : x264 core 135 r2345 f0c1c53
    Залил: msltel
    Размер: 4.94 GB (5307813857 Bytes)

    загрузка...
    Рейтинг →
     (голосов: 1, оценка 5/5, голосовать можно 1 раз )

    Другие торренты по теме:

  • Зелёная кобра / Cobra Verde (1987) BDRip 1080p | L1


    • Комментарии (0):

      Информация

      Информация

        Посетители, находящиеся в группе Гости, не могут оставлять комментарии в данной новости.

        ↓ Меню



        ↓ Опрос

        А Вы добавили сайт в закладки?
        Да
        Не


        Top 10 за месяц (Фильмы)