.
Авторизация | Регистрация
Хочешь лучшие торренты? Добавь свой email!
Добавить
» » Мокасины Маниту / Der Schuh des Manitu (2001) BDRip 720p | D скачать торрент бесплатно




    Мокасины Маниту / Der Schuh des Manitu (2001) BDRip 720p | D скачать торрент бесплатно

    Опубликовал: Админ | Дата: 27-02-2015, 11:09 | Просмотров: 577



    Название: Мокасины Маниту
    Оригинальное название: Der Schuh des Manitu
    Год выпуска: 2001
    Жанр: Комедия, вестерн, приключения, пародия
    Выпущено: Германия, Constantin Film Produktion GmbH, herbX Medienproduktion GmbH, Pro 7, Seven Pictures
    Режиссер: Михаэль Хербиг
    В ролях: Михаэль Хербиг, Кристиан Трамиц, Скай Дюмонт, Мари Баумер, Хильми Сёзер, Рик Каваниан, Тим Вильде, Зиги Терпоортен, Робинзон Райхель, Оливер Внук, Иршад Панджатан, Тим Сикйен, Роберт Алан Пэкард, Сальваторе Паскаль, Антонио Рамирес, Йозеф Ханнесшлэгер, Герд Ломайер

    О фильме: Подлинная и леденящая душу история про кровных братьев Абахачи и Рейнджера, про славные племена апачей и шошонов, про очень-очень плохого белого парня Санта Марию, про голубого краснокожего Виннетуха, про великого вождя Хитрого Слизняка и его безвременно погибшего сына Трусливого Кролика, про несметные сокровища, завещанные Абахачи его дедушкой по имени Бешеная Корова, про то, как старый хрен учил любимого внука делиться и Абахачи честно разделил карту с указанием клада на четыре части, но был настолько пьян, что никак не может вспомнить, куда девал остальные три…

    Качество: BDRip 720p
    Размер: 3.61 ГБ
    Продолжительность: 01:24:41

    Видео: MPEG-4 AVC, 4725 Кбит/с, 1280x578
    Аудио: русский, 48 kHz, AC3, 2 ch, 192 kbps avg, Дублированный

    Внешние файлы
    Аудио: английский, 48 kHz, AC3, 6 ch, 448 kbps avg, Дублированный
    Аудио: немецкий, 48 kHz, AC3, 6 ch, 448 kbps avg, Оригинал
    Аудио: немецкий, 48 kHz, AC3, 2 ch, 192 kbps avg, комментарий
    Субтитры: русские
    Субтитры: английские

    Сравнение с исходником



    Награды
    Приз публики за фильм года и специальная золотая награда для продюсера, режиссёра и актёра Михаэля Хербига в рамках церемонии вручения Национальной кинопремии Лола, приз Бэмби в области кино — Михаэль Хербиг, Кристиан Трамиц, Мари Боймер, Рик Каванян.
    Из отзывов...
    Боб

    Пародия сделана как раз таки не по-немецки, а чисто по-американски. Булли Хербиг — фанат Цукеров и Абрахамса. Поэтому не стоит ругать немецкое кино — оно тут совершенно ни при чём (хотя оно мне тоже не по вкусу).
    Наоборот, Хербиг возродил жанр! Ну, вспомните, сколько пародий мы видели после 1998 года, когда вышли Мафия и Ошибочно обвинённый? Ну? Гнусная дешёвка Очень страшное кино? И всё? Да, не густо. А Хербиг взял, да и показал всем, что жанр жив и развивается!
    Комедия шикарная — шутки, гэги, приколы — в лучших традициях, а если ещё вспомнить, сколько денег фильм принёс (около 70 млн. евро!), то действительно — жанр возрождён!

    Кинопоиск
    Лог х264
    ---Information 25.08.2013 2:33:28 avs info: 1280x578p 1:1 @ 24/1 fps (cfr)
    ---Information 25.08.2013 2:33:28 x264 info: using SAR=1/1
    ---Information 25.08.2013 2:33:28 x264 info: using cpu capabilities: MMX2 SSE2Fast SSSE3 SSE4.2
    ---Information 25.08.2013 2:33:28 x264 info: profile High, level 4.1
    ---Information 25.08.2013 9:56:35 x264 info: frame I:1184 Avg QP:20.42 size:106937
    ---Information 25.08.2013 9:56:35 x264 info: frame P:24466 Avg QP:21.47 size: 46058
    ---Information 25.08.2013 9:56:35 x264 info: frame B:96303 Avg QP:23.62 size: 18798
    ---Information 25.08.2013 9:56:35 x264 info: consecutive B-frames: 1.7% 1.0% 2.8% 25.7% 11.1% 47.4% 4.2% 4.6% 1.5%
    ---Information 25.08.2013 9:56:35 x264 info: mb I I16..4: 6.2% 80.5% 13.4%
    ---Information 25.08.2013 9:56:35 x264 info: mb P I16..4: 0.4% 16.2% 1.9% P16..4: 36.4% 28.8% 14.7% 0.0% 0.0% skip: 1.6%
    ---Information 25.08.2013 9:56:35 x264 info: mb B I16..4: 0.0% 2.0% 0.2% B16..8: 43.6% 13.3% 3.9% direct: 8.6% skip:28.2% L0:44.0% L1:43.4% BI:12.6%
    ---Information 25.08.2013 9:56:35 x264 info: 8x8 transform intra:87.1% inter:62.1%
    ---Information 25.08.2013 9:56:35 x264 info: coded y,uvDC,uvAC intra: 94.8% 83.3% 52.1% inter: 38.9% 20.7% 1.5%
    ---Information 25.08.2013 9:56:35 x264 info: i16 v,h,dc,p: 24% 10% 30% 36%
    ---Information 25.08.2013 9:56:35 x264 info: i8 v,h,dc,ddl,ddr,vr,hd,vl,hu: 13% 7% 11% 10% 12% 12% 11% 12% 12%
    ---Information 25.08.2013 9:56:35 x264 info: i4 v,h,dc,ddl,ddr,vr,hd,vl,hu: 33% 5% 3% 7% 11% 13% 10% 10% 9%
    ---Information 25.08.2013 9:56:35 x264 info: i8c dc,h,v,p: 37% 25% 22% 16%
    ---Information 25.08.2013 9:56:35 x264 info: Weighted P-Frames: Y:8.8% UV:4.5%
    ---Information 25.08.2013 9:56:35 x264 info: ref P L0: 39.8% 13.1% 17.9% 7.2% 6.2% 4.5% 4.2% 2.4% 2.3% 2.1% 0.2% 0.0%
    ---Information 25.08.2013 9:56:35 x264 info: ref B L0: 70.5% 11.5% 6.2% 3.5% 2.7% 2.3% 1.9% 0.9% 0.4%
    ---Information 25.08.2013 9:56:35 x264 info: ref B L1: 92.7% 7.3%
    ---Information 25.08.2013 9:56:35 x264 info: kb/s:4823.50
    ---Information 25.08.2013 9:56:35 encoded 121953 frames, 4.59 fps, 4823.50 kb/s
    --Information 25.08.2013 9:56:36 Final statistics
    ---Information 25.08.2013 9:56:36 Constant Quality Mode: Quality 19 computed...
    ---Information 25.08.2013 9:56:36 Video Bitrate Obtained (approximate): 4825 kbit/s
    --Information 25.08.2013 9:56:36 MediaInfo
    ---Information File: E:RipMokaciny.Manitu.2001.x264.BDRipMokaciny.Manitu.2001.x264.BDRip.720p.mkv
    MediaInfo
    Общее
    Полное имя : E:VideoMokaciny.Manitu.2001.x264.BDRip.720pMokaciny.Manitu.2001.Commentary.ger.ac3
    Формат : AC-3
    Формат/Информация : Audio Coding 3
    Размер файла : 116 Мбайт
    Продолжительность : 1 ч. 24 м.
    Режим общего битрейта : Постоянный
    Общий поток : 192 Кбит/сек

    Аудио
    Формат : AC-3
    Формат/Информация : Audio Coding 3
    Расширение режима : CM (complete main)
    Параметр Endianness формата : Big
    Продолжительность : 1 ч. 24 м.
    Вид битрейта : Постоянный
    Битрейт : 192 Кбит/сек
    Каналы : 2 канала
    Расположение каналов : Front: L R
    Частота : 48,0 КГц
    Битовая глубина : 16 бит
    Метод сжатия : С потерями
    Размер потока : 116 Мбайт (100%)

    Общее
    Полное имя : E:VideoMokaciny.Manitu.2001.x264.BDRip.720pMokaciny.Manitu.2001.DUB.eng.ac3
    Формат : AC-3
    Формат/Информация : Audio Coding 3
    Размер файла : 271 Мбайт
    Продолжительность : 1 ч. 24 м.
    Режим общего битрейта : Постоянный
    Общий поток : 448 Кбит/сек

    Аудио
    Формат : AC-3
    Формат/Информация : Audio Coding 3
    Расширение режима : CM (complete main)
    Параметр Endianness формата : Big
    Продолжительность : 1 ч. 24 м.
    Вид битрейта : Постоянный
    Битрейт : 448 Кбит/сек
    Каналы : 6 каналов
    Расположение каналов : Front: L C R, Side: L R, LFE
    Частота : 48,0 КГц
    Битовая глубина : 16 бит
    Метод сжатия : С потерями
    Размер потока : 271 Мбайт (100%)

    Общее
    Полное имя : E:VideoMokaciny.Manitu.2001.x264.BDRip.720pMokaciny.Manitu.2001.Original.ger.ac3
    Формат : AC-3
    Формат/Информация : Audio Coding 3
    Размер файла : 271 Мбайт
    Продолжительность : 1 ч. 24 м.
    Режим общего битрейта : Постоянный
    Общий поток : 448 Кбит/сек

    Аудио
    Формат : AC-3
    Формат/Информация : Audio Coding 3
    Расширение режима : CM (complete main)
    Параметр Endianness формата : Big
    Продолжительность : 1 ч. 24 м.
    Вид битрейта : Постоянный
    Битрейт : 448 Кбит/сек
    Каналы : 6 каналов
    Расположение каналов : Front: L C R, Side: L R, LFE
    Частота : 48,0 КГц
    Битовая глубина : 16 бит
    Метод сжатия : С потерями
    Размер потока : 271 Мбайт (100%)

    Общее
    Уникальный идентификатор : 170766927242545537671947925116301331843 (0x8078838CE6DF20838BBF2513848BCD83)
    Полное имя : E:VideoMokaciny.Manitu.2001.x264.BDRip.720pMokaciny.Manitu.2001.x264.BDRip.720p.mkv
    Формат : Matroska
    Версия формата : Version 4 / Version 2
    Размер файла : 2,97 Гбайт
    Продолжительность : 1 ч. 24 м.
    Общий поток : 5017 Кбит/сек
    Название фильма : Мокасины Маниту / Der Schuh des Manitu / 2001 / BDRip -- STarankov
    Дата кодирования : UTC 2013-08-25 04:05:23
    Программа кодирования : mkvmerge v6.3.0 (;You can;t stop me!;) built on Jun 28 2013 20:09:41
    Библиотека кодирования : libebml v1.3.0 libmatroska v1.4.0

    Видео
    Идентификатор : 1
    Формат : AVC
    Формат/Информация : Advanced Video Codec
    Профиль формата : High@L4.1
    Параметр CABAC формата : Да
    Параметр ReFrames формата : 10 кадров
    Идентификатор кодека : V_MPEG4/ISO/AVC
    Продолжительность : 1 ч. 24 м.
    Битрейт : 4725 Кбит/сек
    Ширина : 1280 пикселей
    Высота : 578 пикселей
    Соотношение сторон : 2,2:1
    Режим частоты кадров : Постоянный
    Частота кадров : 24,000 кадра/сек
    Цветовое пространство : YUV
    Субдискретизация насыщенности : 4:2:0
    Битовая глубина : 8 бит
    Тип развёртки : Прогрессивная
    Бит/(Пиксели*Кадры) : 0.266
    Размер потока : 2,80 Гбайт (94%)
    Библиотека кодирования : x264 core 135 r2345 f0c1c53
    Залил: msltel
    Размер: 3.61 GB (3877925781 Bytes)

    загрузка...
    Рейтинг →
     (голосов: 1, оценка 4/5, голосовать можно 1 раз )

    Другие торренты по теме:



      Комментарии (0):

      Информация

      Информация

        Посетители, находящиеся в группе Гости, не могут оставлять комментарии в данной новости.

        ↓ Меню



        ↓ Опрос

        А Вы добавили сайт в закладки?
        Да
        Не


        Top 10 за месяц (Фильмы)