.
Авторизация | Регистрация
Хочешь лучшие торренты? Добавь свой email!
Добавить
» » Если бы я был тобой 2 / Se Eu Fosse Voce 2 (2009) DVDRip | P2 скачать торрент бесплатно




    Если бы я был тобой 2 / Se Eu Fosse Voce 2 (2009) DVDRip | P2 скачать торрент бесплатно

    Опубликовал: Админ | Дата: 27-02-2015, 11:09 | Просмотров: 487



    Год выпуска: 2009
    Страна: Бразилия
    Киностудии: Globo Filmes, Lereby Productions...

    Жанр: комедия
    Продолжительность: 01:37:48

    Перевод: Профессиональный (двухголосый)
    Оригинальная аудиодорожка: нет
    Субтитры: нет

    Режиссер: Дэниэл Фильу / Daniel Filho

    В ролях: Тони Рамос, Глория Пиреш, Carlos Bonow, Изабелль Драммонд, Ary Fontoura, Кассио Габус Мендес, Adriane Galisteu, Мария Глэдис, Мария Майя, Бернардо Мендез...

    Описание: Клаудио и Хелена находятся на грани разрыва отношений, и пока этого не случилось, должно произойти нечто такое, что помогло бы им лучше понять друг друга...




    Исходник: DVD5 R2 звук с русского пиратского диска
    Качество: DVDRip
    Формат: AVI

    Видео: 656x368 (16:9), 23.976 fps, XviD MPEG-4 ~927 kbps avg, 0.160 bit/pixel
    Аудио: 48 kHz, Dolby МР3, 2 ch, 128 kbps, русский

    Раздача от:
    MediaInfo

    Общее
    Полное имя : Esly.by.ya.byl.toboi.2.2009.P2.DVDRip.745MB_Youtracker_by_avproh.avi
    Формат : AVI
    Формат/Информация : Audio Video Interleave
    Размер файла : 745 Мбайт
    Продолжительность : 1 ч. 37 м.
    Общий поток : 1064 Кбит/сек
    Программа кодирования : VirtualDubModRus 1.5.10.2 (build 2542/release)
    Библиотека кодирования : VirtualDubMod build 2542/release

    Видео
    Идентификатор : 0
    Формат : MPEG-4 Visual
    Профиль формата : Advanced Simple@L5
    Параметр BVOP формата : 1
    Параметр QPel формата : Нет
    Параметр GMC формата : Без точки перехода
    Параметр матрицы формата : Выборочная
    Идентификатор кодека : XVID
    Идентификатор кодека/Подсказка : XviD
    Продолжительность : 1 ч. 37 м.
    Битрейт : 927 Кбит/сек
    Ширина : 656 пикселей
    Высота : 368 пикселей
    Соотношение сторон : 16:9
    Частота кадров : 23,976 кадра/сек
    Цветовое пространство : YUV
    Субдискретизация насыщенности : 4:2:0
    Битовая глубина : 8 бит
    Тип развёртки : Прогрессивная
    Метод сжатия : С потерями
    Бит/(Пиксели*Кадры) : 0.160
    Размер потока : 649 Мбайт (87%)
    Библиотека кодирования : XviD 65

    Аудио
    Идентификатор : 1
    Формат : MPEG Audio
    Версия формата : Version 1
    Профиль формата : Layer 3
    Режим : Joint stereo
    Расширение режима : MS Stereo
    Идентификатор кодека : 55
    Идентификатор кодека/Подсказка : MP3
    Продолжительность : 1 ч. 37 м.
    Вид битрейта : Постоянный
    Битрейт : 128 Кбит/сек
    Каналы : 2 канала
    Частота : 48,0 КГц
    Метод сжатия : С потерями
    Размер потока : 89,6 Мбайт (12%)
    Выравнивание : Соединение по промежуткам
    Продолжительность промежутка : 42 мс. (1,00 видеокадр)
    Время предзагрузки промежутка : 504 мс.

    Скриншоты



    Залил: avproh
    Размер: 745.07 MB (781258752 Bytes)
    загрузка...
    Рейтинг →
     (голосов: 1, оценка 4/5, голосовать можно 1 раз )

    Другие торренты по теме:

  • Если бы у меня была пушка / Keby som mal pusku / If I had a gun (1972) DVDRip | A
  • Если бы я был тобой 2 / Se Eu Fosse Voce 2 (2009) DVD5 R2 | P2 | custom
  • Если бы Дон-Жуан был женщиной / Don Juan ou Si Don Juan etait une femme (1973) DVDRip-AVC от =Т-Хzona=
  • Если бы я был белым арапом / De-as Fi Harap Alb (1965) DVDRip | Sub
  • Если бы я был тобой / Se Eu Fosse Voc (2006) DVDRip | Sub
  • Если бы я был тобой / If I Were You / Jia Ru Wo Shi Ni (2012) HDTVRip | L2
  • Доклад о школьницах 12: Если бы об этом мамочка знала / Schulmdchen-Report 12. Teil - Wenn das die Mammi wsste (1978) DVDRip | A
  • Если бы эти стены могли говорить / If These Walls Could Talk (1996) DVD5


    • Комментарии (0):

      Информация

      Информация

        Посетители, находящиеся в группе Гости, не могут оставлять комментарии в данной новости.

        ↓ Меню



        ↓ Опрос

        А Вы добавили сайт в закладки?
        Да
        Не


        Top 10 за месяц (Фильмы)