.
Авторизация | Регистрация
Хочешь лучшие торренты? Добавь свой email!
Добавить
» » Раны войны / Forbidden Ground (2013) DVDRip-AVC | datynet скачать торрент бесплатно




    Раны войны / Forbidden Ground (2013) DVDRip-AVC | datynet скачать торрент бесплатно

    Опубликовал: Админ | Дата: 27-02-2015, 11:09 | Просмотров: 348



    Информация о фильме
    Название: Раны войны
    Оригинальное название: Forbidden Ground
    Год выпуска: 2013
    Жанр: Военный, драма

    Режиссер: Йохан Эрл, Адриан Пауэрс
    В ролях: Йохан Эрл, Тим Пакок, Мартин Коппинг, Денай Грейси, Сара Моуби, Бэрри Куин

    Описание: Франция, 1916 год. Трое британских солдат оказываются на нейтральной полосе после неудачной атаки на немецкие окопы.



    Выпущено: Австралия, 24/7 Films, Armzfx, Scarlet Fire Films
    Продолжительность: 01:34:56
    Озвучиванние: Одноголосый закадровый datynet, по субтитрам А.Кедрова
    Cубтитры: русские А.Кедров, английские
    Оригинальная аудиодорожка: английская

    Файл
    Качество видео: DVDRip-AVC
    Формат видео: MKV
    Видео: х264, 720х428@1024x428 (2.40:1), 25.000 fps, 1292 Кbps, 0.168 bit/pixel
    Аудио 1: 48 kHz, AC3 Dolby Digital, 3/2 (L,C,R,l,r) LFE ch, ~448 kbps rus
    Аудио 2: 48 kHz, AC3 Dolby Digital, 3/2 (L,C,R,l,r) LFE ch, ~448 kbps eng
    Скачать: Сэмпл

    x264@log
    frame I:1401 Avg QP:14.04 size: 32131
    frame P:31588 Avg QP:16.28 size: 13905
    frame B:109429 Avg QP:17.38 size: 3970
    consecutive B-frames: 3.6% 3.2% 9.3% 9.9% 12.0% 52.4% 6.0% 2.2% 1.4%
    MediaInfo
    Complete name :Forbidden.Ground.2013.DVDRip.AVC-ed_rez.mkv
    Format : Matroska
    Format version : Version 4 / Version 2
    File size : 1.45 GiB
    Duration : 1h 34mn
    Overall bit rate : 2 188 Kbps
    Movie name : Forbidden Ground (2013) encoded by ed_rez
    Encoded date : UTC 2013-08-25 07:10:44
    Writing application : mkvmerge v6.3.0 (;You can;t stop me!;) built on Jun 28 2013 20:09:41
    Writing library : libebml v1.3.0 libmatroska v1.4.0

    Video
    ID : 1
    Format : AVC
    Format/Info : Advanced Video Codec
    Format profile : High@L4.1
    Format settings, CABAC : Yes
    Format settings, ReFrames : 9 frames
    Codec ID : V_MPEG4/ISO/AVC
    Duration : 1h 34mn
    Bit rate : 1 292 Kbps
    Width : 720 pixels
    Height : 428 pixels
    Display aspect ratio : 2.40:1
    Original display aspect ratio : 2.40:1
    Frame rate mode : Constant
    Frame rate : 25.000 fps
    Color space : YUV
    Chroma subsampling : 4:2:0
    Bit depth : 8 bits
    Scan type : Progressive
    Bits/(Pixel*Frame) : 0.168
    Stream size : 848 MiB (57%)
    Title : Forbidden Ground (2013)
    Writing library : x264 core 133 r2334 a3ac64b
    Encoding settings : cabac=1 / ref=9 / deblock=1:-2:-1 / analyse=0x3:0x113 / me=umh / subme=10 / psy=1 / psy_rd=1.05:0.10 / mixed_ref=1 / me_range=32 / chroma_me=1 / trellis=2 / 8x8dct=1 / cqm=0 / deadzone=21,11 / fast_pskip=0 / chroma_qp_offset=-3 / threads=12 / lookahead_threads=2 / sliced_threads=0 / nr=0 / decimate=0 / interlaced=0 / bluray_compat=0 / constrained_intra=0 / bframes=8 / b_pyramid=2 / b_adapt=2 / b_bias=0 / direct=3 / weightb=1 / open_gop=0 / weightp=2 / keyint=250 / keyint_min=25 / scenecut=40 / intra_refresh=0 / rc_lookahead=60 / rc=2pass / mbtree=0 / bitrate=1292 / ratetol=1.0 / qcomp=0.60 / qpmin=10 / qpmax=59 / qpstep=4 / cplxblur=20.0 / qblur=0.5 / vbv_maxrate=15000 / vbv_bufsize=20000 / nal_hrd=none / ip_ratio=1.40 / pb_ratio=1.30 / aq=1:1.00
    Language : English
    Default : Yes
    Forced : No

    Audio #1
    ID : 2
    Format : AC-3
    Format/Info : Audio Coding 3
    Mode extension : CM (complete main)
    Format settings, Endianness : Big
    Codec ID : A_AC3
    Duration : 1h 34mn
    Bit rate mode : Constant
    Bit rate : 448 Kbps
    Channel count : 6 channels
    Channel positions : Front: L C R, Side: L R, LFE
    Sampling rate : 48.0 KHz
    Bit depth : 16 bits
    Compression mode : Lossy
    Stream size : 304 MiB (20%)
    Title : VO datynet, AC3, 6ch ch, 448 kbps
    Language : Russian
    Default : Yes
    Forced : No

    Audio #2
    ID : 3
    Format : AC-3
    Format/Info : Audio Coding 3
    Mode extension : CM (complete main)
    Format settings, Endianness : Big
    Codec ID : A_AC3
    Duration : 1h 34mn
    Bit rate mode : Constant
    Bit rate : 448 Kbps
    Channel count : 6 channels
    Channel positions : Front: L C R, Side: L R, LFE
    Sampling rate : 48.0 KHz
    Bit depth : 16 bits
    Compression mode : Lossy
    Stream size : 304 MiB (20%)
    Title : AC3, 6ch ch, 448 kbps
    Language : English
    Default : No
    Forced : No

    Text #1
    ID : 4
    Format : UTF-8
    Codec ID : S_TEXT/UTF8
    Codec ID/Info : UTF-8 Plain Text
    Title : А.Кедров
    Language : Russian
    Default : Yes
    Forced : No

    Text #2
    ID : 5
    Format : UTF-8
    Codec ID : S_TEXT/UTF8
    Codec ID/Info : UTF-8 Plain Text
    Language : English
    Default : No
    Forced : No

    Menu
    00:00:00.000 : :Chapter 1
    00:07:00.000 : :Chapter 2
    00:14:00.000 : :Chapter 3
    00:21:00.000 : :Chapter 4
    00:28:00.000 : :Chapter 5
    00:35:00.000 : :Chapter 6
    00:42:00.000 : :Chapter 7
    00:49:00.000 : :Chapter 8
    00:56:00.000 : :Chapter 9
    01:03:00.000 : :Chapter 10
    01:10:00.000 : :Chapter 11
    01:17:00.000 : :Chapter 12
    01:24:00.000 : :Chapter 13
    01:31:00.000 : :Chapter 14
    Скриншоты

    Размер: 1.45 GB (1558251104 Bytes)
    загрузка...
    Рейтинг →
     (голосов: 1, оценка 5/5, голосовать можно 1 раз )

    Другие торренты по теме:

  • Раны войны / Forbidden Ground (2013) HDRip | L1


    • Комментарии (0):

      Информация

      Информация

        Посетители, находящиеся в группе Гости, не могут оставлять комментарии в данной новости.

        ↓ Меню



        ↓ Опрос

        А Вы добавили сайт в закладки?
        Да
        Не


        Top 10 за месяц (Фильмы)