.
Авторизация | Регистрация
Хочешь лучшие торренты? Добавь свой email!
Добавить
» » Будущее / The Future (2011) DVDRip от Youtracker | P | лицензия скачать торрент бесплатно




    Будущее / The Future (2011) DVDRip от Youtracker | P | лицензия скачать торрент бесплатно

    Опубликовал: Админ | Дата: 27-02-2015, 11:09 | Просмотров: 280


    Год выпуска: 2011
    Страна: Германия, США
    Киностудия: GNK Productions, Haut et Court...

    Жанр: драма, комедия
    Продолжительность: 01:26:54

    Перевод: Профессиональный (многоголосый)
    Субтитры: нет
    Оригинальная аудиодорожка: нет

    Режиссер: Миранда Джулай / Miranda July

    В ролях: Хамиш Линклэйтер, Миранда Джулай, Дэвид Уоршофски, Изабелла Акрес, Джо Паттерлик, Анджела Тримбур, Мэри Пассери, Элла, Кэтлин Гати, Клемент Сейнт-Джордж...

    Описание: Когда пара решает взять бездомного кота, их жизненная перспектива меняется, буквально искажая пространство и время и проверяя их веру в себя и друг друга на прочность.





    Исходник: DVD5 R5
    Качество: DVDRip
    Формат: AVI
    Видео: 720x384 (1.85:1), 25.000 fps, XViD ~ 1061 kbps avg, 0.153 bit/pixel
    Аудио: 48 kHz, MP3 2 ch, 128 kbps, русский

    Раздача от:
    MediaInfo

    Общее
    Полное имя : Budushee.2011Budushee.2011.P.DVDRip.745MB_Youtracker_by_avproh.avi
    Формат : AVI
    Формат/Информация : Audio Video Interleave
    Размер файла : 745 Мбайт
    Продолжительность : 1 ч. 26 м.
    Общий поток : 1198 Кбит/сек
    Программа кодирования : VirtualDubModRus 1.5.10.2 (build 2542/release)
    Библиотека кодирования : VirtualDubMod build 2542/release

    Видео
    Идентификатор : 0
    Формат : MPEG-4 Visual
    Профиль формата : Advanced Simple@L5
    Параметр BVOP формата : 1
    Параметр QPel формата : Нет
    Параметр GMC формата : Без точки перехода
    Параметр матрицы формата : Выборочная
    Идентификатор кодека : XVID
    Идентификатор кодека/Подсказка : XviD
    Продолжительность : 1 ч. 26 м.
    Битрейт : 1061 Кбит/сек
    Ширина : 720 пикселей
    Высота : 384 пикселя
    Соотношение сторон : 1,85:1
    Частота кадров : 25,000 кадров/сек
    Цветовое пространство : YUV
    Субдискретизация насыщенности : 4:2:0
    Битовая глубина : 8 бит
    Тип развёртки : Прогрессивная
    Метод сжатия : С потерями
    Бит/(Пиксели*Кадры) : 0.153
    Размер потока : 659 Мбайт (89%)
    Библиотека кодирования : XviD 65

    Аудио
    Идентификатор : 1
    Формат : MPEG Audio
    Версия формата : Version 1
    Профиль формата : Layer 3
    Режим : Joint stereo
    Расширение режима : MS Stereo
    Идентификатор кодека : 55
    Идентификатор кодека/Подсказка : MP3
    Продолжительность : 1 ч. 26 м.
    Вид битрейта : Постоянный
    Битрейт : 128 Кбит/сек
    Каналы : 2 канала
    Частота : 48,0 КГц
    Метод сжатия : С потерями
    Размер потока : 79,6 Мбайт (11%)
    Выравнивание : Соединение по промежуткам
    Продолжительность промежутка : 40 мс. (1,00 видеокадр)
    Время предзагрузки промежутка : 504 мс.

    Скриншоты:



    Залил: avproh
    Размер: 744.71 MB (780883968 Bytes)
    загрузка...
    Рейтинг →
     (голосов: 1, оценка 4/5, голосовать можно 1 раз )

    Другие торренты по теме:

  • Светлое будущее / Право на жизнь 3 / A Better Tomorrow / Ying hung boon sik 3 (1989) BDRip 720p от R.G. GoldenShara
  • Назад в будущее: Мультсериал / Back to the Future: The Animated Series (1991) SATRemux
  • Игорь Шапошников - Будущее не выбирают (2008) (2013) MP3
  • Sub Focus - Будущее Бас (2010) MP3
  • Назад в будущее: Трилогия / Back to the Future: Trilogy (1985-1990) BDRip-AVC | D, P, A
  • Секретные материалы: Борьба за будущее / The X-files: Fight the future (1998) BDRip от R. G. Jolly Roger
  • Будущее - это женщина / Il futuro e donna (1984) DVDRip
  • Роман Злотников - Атака на будущее (2007) (2013) MP3


    • Комментарии (0):

      Информация

      Информация

        Посетители, находящиеся в группе Гости, не могут оставлять комментарии в данной новости.

        ↓ Меню



        ↓ Опрос

        А Вы добавили сайт в закладки?
        Да
        Не


        Top 10 за месяц (Фильмы)