.
Авторизация | Регистрация
Хочешь лучшие торренты? Добавь свой email!
Добавить
» » Сексмиссия / Новые амазонки / Seksmisja (1983) HDTV 1080i скачать торрент бесплатно




    Сексмиссия / Новые амазонки / Seksmisja (1983) HDTV 1080i скачать торрент бесплатно

    Опубликовал: Админ | Дата: 27-02-2015, 11:09 | Просмотров: 1479




    Информация о фильме
    Название: Сексмиссия / Новые амазонки
    Оригинальное название: Seksmisja
    Год выхода: 1983
    Жанр: фантастика, комедия, приключения
    Режиссер: Юлиуш Махульский

    В ролях: Ольгерд Лукашевич, Ежи Штур, Божена Стрыйкувна, Богуслава Павелец, Ханна Станкувна, Беата Тышкевич, Рышарда Ханин, Барбара Людвижанка, Мирослава Мархелюк, Ханна Микуць, Эльжбета Зайонцувна, Дорота Сталиньская, Эва Шикульска, Януш Михаловский, Веслав Михниковский, Пётр Стефаняк, Юлиуш Любич-Лисовский, Софья Плевиньская, Анна Весоловская, Магдалена Кута

    О фильме:
    Альберт и Максимилиан соглашаются стать участниками эксперимента профессора Куппельвайзера: они, двое молодых мужчин лет 30-ти, в интересах науки должны быть заморожены сроком на 3 года. Однако за время, проведенное ими в специальных капсулах, на Земле многое изменилось, и потому Альбертика с Максом разморозили не через три года, а через полвека с лишним. В 2044 году. Когда вымерли все мужчины, и других самцов, кроме парочки размороженных, больше нигде не осталось.

    Амазонки 21-го века живут в глубоком подземелье, благополучно разрешив проблему размножения без оплодотворения, и не нуждаются в присутствии особей мужского пола. С риском для собственной жизни Альберт и Макс вынуждены приступить к выполнению сексмиссии…



    Ограничение по возрасту: 16

    Страна: Польша
    Студия: Zespol Filmowy Kadr
    Продолжительность:
    Перевод: Профессиональный (многоголосый, закадровый) Мастер Тэйп оригинал

    Файл
    Кодек: AVC
    Качество: HDTV 1080i
    Видео: 1920x1080 (16:9); 7897 Kbps; 0,152 bpp
    Аудио №1: Russian: AC3; 384 Kbps; CBR; 6 ch
    Аудио №2: Polish: AC3; 448 Kbps; CBR; 6 ch
    Субтитры: отсутствуют

    Знаете ли вы, что...

    • Фильм вышел в советский кинопрокат на сеансах детям до 16 и с купюрами. О том, какие шокирующе откровенные сексуальные эпизоды были вырезаны из фильма, среди советских зрителей ходили легенды. Однако на самом деле большую часть изъятого материала составил эпизод разгрома лагеря декадентов. Что же касается откровенных сцен, то из фильма были вырезаны лишь пара безобидных кадров фронтальной обнаженки.

    • В начале фильма, приветствуя всех поклонников гибернации во всём мире, Макс поднимает два пальца вверх. Этот жест был предложен цензорами — по замыслу режиссёра, Макс должен был показать знак приветствия, принятый у членов Солидарности.

    • В газете, найденной Максом и Альбертом в сапогах, на польском языке только заголовки. Сами статьи по-французски.
    MI:
    Общее
    Уникальный идентификатор : 218098581802885647084279264279150493759 (0xA414424AB1F190839F38B9CE1568803F)
    Полное имя : C:UsersDimazDesktopSeksmisja.1983.HDTV.1080.mkv
    Формат : Matroska
    Версия формата : Version 4 / Version 2
    Размер файла : 7,13 Гбайт
    Продолжительность : 1 ч. 54 м.
    Общий поток : 8906 Кбит/сек
    Название фильма : Seksmisja 1984
    Дата кодирования : UTC 2013-08-16 07:06:45
    Программа кодирования : mkvmerge v6.3.0 (;You can;t stop me!;) built on Jun 28 2013 20:09:41
    Библиотека кодирования : libebml v1.3.0 libmatroska v1.4.0

    Видео
    Идентификатор : 1
    Формат : AVC
    Формат/Информация : Advanced Video Codec
    Профиль формата : Main@L4.0
    Параметр CABAC формата : Да
    Параметр ReFrames формата : 4 кадра
    Идентификатор кодека : V_MPEG4/ISO/AVC
    Продолжительность : 1 ч. 54 м.
    Битрейт : 7897 Кбит/сек
    Ширина : 1920 пикселей
    Высота : 1080 пикселей
    Соотношение сторон : 16:9
    Режим частоты кадров : Постоянный
    Частота кадров : 25,000 кадров/сек
    Цветовое пространство : YUV
    Субдискретизация насыщенности : 4:2:0
    Битовая глубина : 8 бит
    Тип развёртки : Чересстрочная
    Порядок развёртки : Верхнее поле первое
    Бит/(Пиксели*Кадры) : 0.152
    Размер потока : 6,32 Гбайт (89%)
    Default : Да
    Forced : Нет
    Основные цвета : BT.709
    Характеристики трансфера : BT.709
    Коэффициенты матрицы : BT.709

    Аудио #1
    Идентификатор : 2
    Формат : AC-3
    Формат/Информация : Audio Coding 3
    Расширение режима : CM (complete main)
    Параметр Endianness формата : Big
    Идентификатор кодека : A_AC3
    Продолжительность : 1 ч. 54 м.
    Вид битрейта : Постоянный
    Битрейт : 384 Кбит/сек
    Каналы : 6 каналов
    Расположение каналов : Front: L C R, Side: L R, LFE
    Частота : 48,0 КГц
    Битовая глубина : 16 бит
    Метод сжатия : С потерями
    Задержка видео : -104 мс.
    Размер потока : 315 Мбайт (4%)
    Заголовок : MVO (Мастер Тэйп)
    Язык : Russian
    Default : Да
    Forced : Нет

    Аудио #2
    Идентификатор : 3
    Формат : AC-3
    Формат/Информация : Audio Coding 3
    Расширение режима : CM (complete main)
    Параметр Endianness формата : Big
    Идентификатор кодека : A_AC3
    Продолжительность : 1 ч. 54 м.
    Вид битрейта : Постоянный
    Битрейт : 448 Кбит/сек
    Каналы : 6 каналов
    Расположение каналов : Front: L C R, Side: L R, LFE
    Скриншоты:





    Залил: Darkrlita
    Размер: 7.13 GB (7653860972 Bytes)
    загрузка...
    Рейтинг →
     (голосов: 1, оценка 3/5, голосовать можно 1 раз )

    Другие торренты по теме:

  • Сексмиссия / Новые амазонки / Seksmisja (1983) DVD5
  • Сексмиссия / Новые Амазонки / Seksmisja (1983) HDTVRip-AVC от New-Team скачать через торрент бесплатно
  • Сексмиссия / Новые Амазонки / Seksmisja (1983) HDTVRip от New-Team скачать через торрент бесплатно
  • Сексмиссия / Новые амазонки / Seksmisja (1983) WEB-DL 720p | P, P2


    • Комментарии (0):

      Информация

      Информация

        Посетители, находящиеся в группе Гости, не могут оставлять комментарии в данной новости.

        ↓ Меню



        ↓ Опрос

        А Вы добавили сайт в закладки?
        Да
        Не


        Top 10 за месяц (Фильмы)