.
Авторизация | Регистрация
Хочешь лучшие торренты? Добавь свой email!
Добавить
» » Восемь мечей дракона / The Eight Dragon Sword (1971) DVDRip от ikusha76 скачать торрент бесплатно




    Восемь мечей дракона / The Eight Dragon Sword (1971) DVDRip от ikusha76 скачать торрент бесплатно

    Опубликовал: Админ | Дата: 27-02-2015, 11:09 | Просмотров: 391



    Информация о фильме
    Название: Восемь мечей дракона
    Оригинальное название: The Eight Dragon Sword
    Год выхода: 1971
    Жанр: боевые искусства
    Режиссер: Гам Синг Ян
    В ролях: Чэнь Хун Ле, Хо Вай Хун, Кун Бань, Им Чун

    О фильме:
    Хуа Ли Цюнь - молодой парень,хорошо владеющий кунг фу.Он путешествует по свету в поисках насильников,мошенников и прочих негодяев,побеждает их в честном поединке и заставляет следовать за собой до тех пор,пока те не исправятся и не станут добропорядочными гражданами. Как то раз в одном из таких поединков Хуа Ли Цюнь проигрывает незнакомцу в маске и теперь он должен выполнить любое его желание.Сам не желая того,Хуа Ли Цюнь вынужден переступить через закон и похитить ценную реликвию - волшебный шар огненного дракона.


    Страна: Тайвань
    Продолжительность: 01:23:15
    Перевод: Любительский одноголосый закадровый (Jet)

    Файл
    Кодек: XviD
    Качество: DVDRip
    Видео: 688x288, 25 fps, ~1113 kbps avg, 0.22 bit/pixel
    Звук: 48 kHz, MPEG Layer 3, 2 ch, ~128.00 kbps avg
    Субтитры: нет

    MI
    Формат : AVI
    Формат/Информация : Audio Video Interleave
    Размер файла : 745 Мбайт
    Продолжительность : 1 ч. 23 м.
    Общий поток : 1251 Кбит/сек
    Программа кодирования : VirtualDubMod 1.5.10.2 (build 2540/release)
    Библиотека кодирования : VirtualDubMod build 2540/release

    Видео
    Идентификатор : 0
    Формат : MPEG-4 Visual
    Профиль формата : Advanced Simple@L5
    Параметр BVOP формата : 2
    Параметр QPel формата : Нет
    Параметр GMC формата : Без точки перехода
    Параметр матрицы формата : Выборочная
    Идентификатор кодека : XVID
    Идентификатор кодека/Подсказка : XviD
    Продолжительность : 1 ч. 23 м.
    Битрейт : 1113 Кбит/сек
    Ширина : 688 пикселей
    Высота : 288 пикселей
    Соотношение сторон : 2,40:1
    Частота кадров : 25,000 кадров/сек
    Цветовое пространство : YUV
    Субдискретизация насыщенности : 4:2:0
    Битовая глубина : 8 бит
    Тип развёртки : Прогрессивная
    Метод сжатия : С потерями
    Бит/(Пиксели*Кадры) : 0.225
    Размер потока : 663 Мбайт (89%)
    Библиотека кодирования : XviD 65

    Аудио
    Идентификатор : 1
    Формат : MPEG Audio
    Версия формата : Version 1
    Профиль формата : Layer 3
    Режим : Joint stereo
    Расширение режима : MS Stereo
    Идентификатор кодека : 55
    Идентификатор кодека/Подсказка : MP3
    Продолжительность : 1 ч. 23 м.
    Вид битрейта : Постоянный
    Битрейт : 128 Кбит/сек
    Каналы : 2 канала
    Частота : 48,0 КГц
    Метод сжатия : С потерями
    Размер потока : 76,2 Мбайт (10%)
    Выравнивание : Соединение по промежуткам
    Продолжительность промежутка : 40 мс. (1,00 видеокадр)
    Время предзагрузки промежутка : 504 мс.

    Скриншоты

    Залил: ikusha76
    Размер: 744.98 MB (781170688 Bytes)
    загрузка...
    Рейтинг →
     (голосов: 1, оценка 4/5, голосовать можно 1 раз )

    Другие торренты по теме:

  • Катя Чехова - Восемь Бит (2012) MP3
  • Команда восемь (2012) WEB-DL 720p от GeneralFilm
  • Команда восемь: В тылу врага / Seal Team Eight: Behind Enemy Lines (2014) BDRemux 1080p от ExKinoRay | Р скачать через торрент бесплатно
  • Команда восемь: В тылу врага / Seal Team Eight: Behind Enemy Lines (2014) BDRip-AVC | iPad | P
  • Команда восемь: В тылу врага / Seal Team Eight: Behind Enemy Lines (2014) BDRip 1080p от MediaClub | НТВ
  • Команда восемь: В тылу врага / Seal Team Eight: Behind Enemy Lines (2014) BDRip от Rulya74 | P скачать через торрент бесплатно
  • Команда восемь: В тылу врага / Seal Team Eight: Behind Enemy Lines (2014) BDRip-AVC от ExKinoRay | Р скачать через торрент бесплатно
  • 8 миллиметров / Восемь миллиметров / 8MM (1999) DVD5 от New-Team | P | Сжатый скачать через торрент бесплатно


    • Комментарии (0):

      Информация

      Информация

        Посетители, находящиеся в группе Гости, не могут оставлять комментарии в данной новости.

        ↓ Меню



        ↓ Опрос

        А Вы добавили сайт в закладки?
        Да
        Не


        Top 10 за месяц (Фильмы)