.
Авторизация | Регистрация
Хочешь лучшие торренты? Добавь свой email!
Добавить
» » Детские игры / Child’s Play (1988) BDRip 720p | P2, A скачать торрент бесплатно




    Детские игры / Child’s Play (1988) BDRip 720p | P2, A скачать торрент бесплатно

    Опубликовал: Админ | Дата: 27-02-2015, 11:09 | Просмотров: 424



    Название: Детские игры
    Оригинальное название: Child;s Play
    Год выпуска: 1988
    Жанр: Ужасы, триллер, детектив
    Выпущено: США, United Artists
    Режиссер: Том Холланд
    В ролях: Кэтрин Хикс, Крис Сарандон, Алекс Винсент, Брэд Дуриф, Дайна Мэнофф, Томми Свердлоу, Джек Колвин, Нил Джунтоли, Хуан Рамирес, Алан Уайлдер

    О фильме: Никто не поверил шестилетнему Энди Барклаю, когда он сказал, что его новая кукла по имени Чаки — живая. А когда няня мальчика погибла, выпав из окна, он сказал своей матери и следователю чистую правду: Это сделал Чаки. Когда душа убийцы вселяется в невинно выглядящую куклу, никто, кроме маленького Энди, не осознаёт, что Чаки виновен в захлестнувшей город волне страшных убийств. Но настоящий ужас наступает тогда, когда дух злодея вознамеривается переселиться из куклы в живого человека.

    Качество: BDRip 720p
    Размер: 5.33 ГБ
    Продолжительность: 01:27:07

    Видео: MPEG-4 AVC, 5396 Кбит/с, 1280x694
    Аудио 1: русский, 48 kHz, AC3, 2 ch, 192 kbps avg, Tycoon Профессиональный двухголосый
    Аудио 2: русский, 48 kHz, AC3, 2 ch, 192 kbps avg, Василий Горчаков Авторский
    Аудио 3: русский, 48 kHz, AC3, 6 ch, 448 kbps avg, Юрий Живов Авторский

    Внешние файлы
    Аудио: русский, 48 kHz, DTS, 6 ch, 1509 kbps avg, Юрий Живов Авторский
    Аудио: английский, 48 kHz, AC3, 6 ch, 448 kbps avg, Оригинал
    Аудио: английский, 48 kHz, AC3, 2 ch, 224 kbps avg, Комментарий 1
    Аудио: английский, 48 kHz, AC3, 2 ch, 224 kbps avg, Комментарий 2
    Субтитры: русские
    Субтитры: английские (для слабослышащих)

    Сравнение с исходником



    Награды
    Сатурн, 1990 год
    Победитель (1):
    Лучшая актриса (Кэтрин Хикс)

    Номинации (3):
    Лучший фильм ужасов
    Лучший молодой актер/актриса (Алекс Винсент)
    Лучший сценарий
    Лог х264
    ---Information 13.08.2013 2:55:11 avs info: 1280x694p 1:1 @ 24000/1001 fps (cfr)
    ---Information 13.08.2013 2:55:11 x264 info: using SAR=1/1
    ---Information 13.08.2013 2:55:11 x264 info: using cpu capabilities: MMX2 SSE2Fast SSSE3 SSE4.2
    ---Information 13.08.2013 2:55:11 x264 info: profile High, level 4.1
    ---Information 13.08.2013 12:42:54 x264 info: frame I:863 Avg QP:18.37 size: 93122
    ---Information 13.08.2013 12:42:54 x264 info: frame P:23788 Avg QP:19.46 size: 49065
    ---Information 13.08.2013 12:42:54 x264 info: frame B:100692 Avg QP:21.76 size: 23434
    ---Information 13.08.2013 12:42:54 x264 info: consecutive B-frames: 1.5% 1.6% 2.9% 19.8% 7.1% 38.9% 4.6% 22.0% 1.7%
    ---Information 13.08.2013 12:42:54 x264 info: mb I I16..4: 4.8% 88.1% 7.1%
    ---Information 13.08.2013 12:42:54 x264 info: mb P I16..4: 1.0% 28.8% 1.1% P16..4: 32.6% 22.1% 9.5% 0.0% 0.0% skip: 4.8%
    ---Information 13.08.2013 12:42:54 x264 info: mb B I16..4: 0.1% 2.5% 0.1% B16..8: 45.2% 14.7% 3.3% direct:10.7% skip:23.5% L0:48.4% L1:45.0% BI: 6.6%
    ---Information 13.08.2013 12:42:54 x264 info: 8x8 transform intra:92.9% inter:63.9%
    ---Information 13.08.2013 12:42:54 x264 info: coded y,uvDC,uvAC intra: 93.7% 91.0% 67.3% inter: 44.6% 40.2% 4.1%
    ---Information 13.08.2013 12:42:54 x264 info: i16 v,h,dc,p: 48% 13% 9% 29%
    ---Information 13.08.2013 12:42:54 x264 info: i8 v,h,dc,ddl,ddr,vr,hd,vl,hu: 10% 6% 10% 10% 14% 13% 12% 12% 13%
    ---Information 13.08.2013 12:42:54 x264 info: i4 v,h,dc,ddl,ddr,vr,hd,vl,hu: 14% 6% 3% 9% 15% 15% 14% 12% 12%
    ---Information 13.08.2013 12:42:54 x264 info: i8c dc,h,v,p: 46% 20% 18% 16%
    ---Information 13.08.2013 12:42:54 x264 info: Weighted P-Frames: Y:6.7% UV:3.8%
    ---Information 13.08.2013 12:42:54 x264 info: ref P L0: 39.8% 10.2% 19.4% 8.6% 7.0% 5.1% 4.4% 2.7% 2.5% 0.2% 0.0%
    ---Information 13.08.2013 12:42:54 x264 info: ref B L0: 62.1% 15.3% 9.0% 4.8% 3.7% 3.0% 1.6% 0.4%
    ---Information 13.08.2013 12:42:54 x264 info: ref B L1: 89.0% 11.0%
    ---Information 13.08.2013 12:42:54 x264 info: kb/s:5519.87
    ---Information 13.08.2013 12:42:54 encoded 125343 frames, 3.55 fps, 5519.87 kb/s
    --Information 13.08.2013 12:42:56 Final statistics
    ---Information 13.08.2013 12:42:56 Constant Quality Mode: Quality 20 computed...
    ---Information 13.08.2013 12:42:56 Video Bitrate Obtained (approximate): 5521 kbit/s
    --Information 13.08.2013 12:42:56 MediaInfo
    ---Information File: E:RipDetskie.igry.1988.x264.BDRipDetskie.igry.1988.x264.BDRip.720p.mkv
    MediaInfo
    Общее
    Полное имя : E:VideoDetskie.igry.1988.x264.BDRip.720pDetskie.igry.1988.AVO.rus.Ю.Живов.dts
    Формат : DTS
    Формат/Информация : Digital Theater Systems
    Размер файла : 940 Мбайт
    Продолжительность : 1 ч. 27 м.
    Режим общего битрейта : Постоянный
    Общий поток : 1509 Кбит/сек

    Аудио
    Формат : DTS
    Формат/Информация : Digital Theater Systems
    Режим : 16
    Параметр Endianness формата : Big
    Продолжительность : 1 ч. 27 м.
    Вид битрейта : Постоянный
    Битрейт : 1509 Кбит/сек
    Каналы : 6 каналов
    Расположение каналов : Front: L C R, Side: L R, LFE
    Частота : 48,0 КГц
    Битовая глубина : 24 бит
    Метод сжатия : С потерями
    Размер потока : 940 Мбайт

    Общее
    Полное имя : E:VideoDetskie.igry.1988.x264.BDRip.720pDetskie.igry.1988.Commentary1.eng.ac3
    Формат : AC-3
    Формат/Информация : Audio Coding 3
    Размер файла : 140 Мбайт
    Продолжительность : 1 ч. 27 м.
    Режим общего битрейта : Постоянный
    Общий поток : 224 Кбит/сек

    Аудио
    Формат : AC-3
    Формат/Информация : Audio Coding 3
    Расширение режима : CM (complete main)
    Параметр Endianness формата : Big
    Продолжительность : 1 ч. 27 м.
    Вид битрейта : Постоянный
    Битрейт : 224 Кбит/сек
    Каналы : 2 канала
    Расположение каналов : Front: L R
    Частота : 48,0 КГц
    Битовая глубина : 16 бит
    Метод сжатия : С потерями
    Размер потока : 140 Мбайт (100%)

    Общее
    Полное имя : E:VideoDetskie.igry.1988.x264.BDRip.720pDetskie.igry.1988.Commentary2.eng.ac3
    Формат : AC-3
    Формат/Информация : Audio Coding 3
    Размер файла : 140 Мбайт
    Продолжительность : 1 ч. 27 м.
    Режим общего битрейта : Постоянный
    Общий поток : 224 Кбит/сек

    Аудио
    Формат : AC-3
    Формат/Информация : Audio Coding 3
    Расширение режима : CM (complete main)
    Параметр Endianness формата : Big
    Продолжительность : 1 ч. 27 м.
    Вид битрейта : Постоянный
    Битрейт : 224 Кбит/сек
    Каналы : 2 канала
    Расположение каналов : Front: L R
    Частота : 48,0 КГц
    Битовая глубина : 16 бит
    Метод сжатия : С потерями
    Размер потока : 140 Мбайт (100%)

    Общее
    Полное имя : E:VideoDetskie.igry.1988.x264.BDRip.720pDetskie.igry.1988.eng.SDH.srt
    Размер файла : 125 Кбайт

    Общее
    Полное имя : E:VideoDetskie.igry.1988.x264.BDRip.720pDetskie.igry.1988.original.eng.ac3
    Формат : AC-3
    Формат/Информация : Audio Coding 3
    Размер файла : 279 Мбайт
    Продолжительность : 1 ч. 27 м.
    Режим общего битрейта : Постоянный
    Общий поток : 448 Кбит/сек

    Аудио
    Формат : AC-3
    Формат/Информация : Audio Coding 3
    Расширение режима : CM (complete main)
    Параметр Endianness формата : Big
    Продолжительность : 1 ч. 27 м.
    Вид битрейта : Постоянный
    Битрейт : 448 Кбит/сек
    Каналы : 6 каналов
    Расположение каналов : Front: L C R, Side: L R, LFE
    Частота : 48,0 КГц
    Битовая глубина : 16 бит
    Метод сжатия : С потерями
    Размер потока : 279 Мбайт (100%)

    Общее
    Полное имя : E:VideoDetskie.igry.1988.x264.BDRip.720pDetskie.igry.1988.rus.srt
    Размер файла : 87,0 Кбайт

    Общее
    Уникальный идентификатор : 202020917615755365199662926827730295200 (0x97FBD03F1A65431DBDD743D7F2CCD9A0)
    Полное имя : E:VideoDetskie.igry.1988.x264.BDRip.720pDetskie.igry.1988.x264.BDRip.720p.mkv
    Формат : Matroska
    Версия формата : Version 4 / Version 2
    Размер файла : 3,87 Гбайт
    Продолжительность : 1 ч. 27 м.
    Общий поток : 6354 Кбит/сек
    Название фильма : Детские игры / Child;s Play / 1988 / BDRip -- STarankov
    Дата кодирования : UTC 2013-08-13 09:46:39
    Программа кодирования : mkvmerge v6.3.0 (;You can;t stop me!;) built on Jun 28 2013 20:09:41
    Библиотека кодирования : libebml v1.3.0 libmatroska v1.4.0

    Видео
    Идентификатор : 1
    Формат : AVC
    Формат/Информация : Advanced Video Codec
    Профиль формата : High@L4.1
    Параметр CABAC формата : Да
    Параметр ReFrames формата : 9 кадров
    Идентификатор кодека : V_MPEG4/ISO/AVC
    Продолжительность : 1 ч. 27 м.
    Битрейт : 5396 Кбит/сек
    Ширина : 1280 пикселей
    Высота : 694 пикселя
    Соотношение сторон : 1,85:1
    Режим частоты кадров : Постоянный
    Частота кадров : 23,976 кадра/сек
    Цветовое пространство : YUV
    Субдискретизация насыщенности : 4:2:0
    Битовая глубина : 8 бит
    Тип развёртки : Прогрессивная
    Бит/(Пиксели*Кадры) : 0.253
    Размер потока : 3,28 Гбайт (85%)
    Библиотека кодирования : x264 core 135 r2345 f0c1c53
    Залил: msltel
    Размер: 5.33 GB (5724238715 Bytes)

    загрузка...
    Рейтинг →
     (голосов: 1, оценка 4/5, голосовать можно 1 раз )

    Другие торренты по теме:

  • Г.Вагнер, К.Фрейер - Детские игры и развлечения (1902) PDF от RG Superdetki
  • Детские игры / Выходи играть / Come Out and Play (2012) DVDScr | L1
  • Детские игры 2 / Child’s Play 2 (1990) BDRip | P1, A
  • Детские игры 2 / Child’s Play 2 (1990) BDRip 720p | P1, A
  • Детские игры / Childs Play (1988) BDRip от HQCLUB
  • Энциклопедия для родителей - Детские развивающие игры (2008) PC от ImperiaFilm


    • Комментарии (0):

      Информация

      Информация

        Посетители, находящиеся в группе Гости, не могут оставлять комментарии в данной новости.

        ↓ Меню



        ↓ Опрос

        А Вы добавили сайт в закладки?
        Да
        Не


        Top 10 за месяц (Фильмы)