.
Авторизация | Регистрация
Хочешь лучшие торренты? Добавь свой email!
Добавить
» » Возвращение Титаника (1999) TVRip скачать торрент бесплатно




    Возвращение Титаника (1999) TVRip скачать торрент бесплатно

    Опубликовал: Админ | Дата: 27-02-2015, 11:09 | Просмотров: 419




    Страна: Россия
    Производство: Синема Спейс
    Жанр: Боевик
    Год выпуска: 1999

    Продолжительность: 2 х ~ 01:15:00


    Язык: Русский

    Оригинальная аудиодорожка: Нет

    Cубтитры: Нет


    Режиссер: Игорь Талпа


    В ролях: Игорь Гузун, Лада Марис, Нику Сувейкэ, Эмиль Гажу, Михаил Бурлаков, Замира Колхиева, Владимир Майсурадзе, Василий Малов, Евгений Мызников, Юрий Чуприн




    Описание: Владелец бара Боб использует свою сестру, скрипачку Кристину, пристрастившуюся к наркотикам, для транспортировки белого яда. Пользуясь симпатией артистки, в банду наркодельцов внедряется специальный агент управления по борьбе с организованной преступностью майор милиции Георгий Иванович, по кличке Титаник.Он получает место телохранителя Кристины. Склонность к импровизациям неожиданно приводит его к ситуации, когда надо выбирать между долгом и совестью… Но Титаник отказывается от выбора…


    Тип релиза: TVRip

    Контейнер: AVI

    Семпл


    Видео: 720x400 (1.80:1), 25 fps, DivX ~1935 kbps avg, 0.27 bit/pixel
    Аудио: 44.100 kHz, 2.0 ~64.00 kbps avg



    MediaInfo
    Общее
    Полное имя : D:1АААВозвращение Титаника1.avi
    Формат : AVI
    Формат/Информация : Audio Video Interleave
    Размер файла : 1,04 Гбайт
    Продолжительность : 1 ч. 14 м.
    Общий поток : 2013 Кбит/сек
    Программа кодирования : Lavf52.0.0
    Библиотека кодирования : VirtualDub build 32842/release

    Видео
    Идентификатор : 0
    Формат : MPEG-4 Visual
    Параметр BVOP формата : 1
    Параметр QPel формата : Нет
    Параметр GMC формата : Без точки перехода
    Параметр матрицы формата : Default (H.263)
    Режим смешивания : Сжатый битовый поток
    Идентификатор кодека : DX50
    Идентификатор кодека/Подсказка : DivX 5
    Продолжительность : 1 ч. 14 м.
    Битрейт : 1936 Кбит/сек
    Ширина : 720 пикселей
    Высота : 400 пикселей
    Соотношение сторон : 16:9
    Частота кадров : 25,000 кадров/сек
    Цветовое пространство : YUV
    Субдискретизация насыщенности : 4:2:0
    Битовая глубина : 8 бит
    Тип развёртки : Прогрессивная
    Метод сжатия : С потерями
    Бит/(Пиксели*Кадры) : 0.269
    Размер потока : 1,00 Гбайт (96%)
    Библиотека кодирования : DivX 6.8.5 (UTC 2009-08-20)

    Аудио
    Идентификатор : 1
    Формат : MPEG Audio
    Версия формата : Version 1
    Профиль формата : Layer 3
    Идентификатор кодека : 55
    Идентификатор кодека/Подсказка : MP3
    Продолжительность : 1 ч. 14 м.
    Вид битрейта : Постоянный
    Битрейт : 64,0 Кбит/сек
    Каналы : 1 канал
    Частота : 44,1 КГц
    Метод сжатия : С потерями
    Размер потока : 34,0 Мбайт (3%)
    Выравнивание : Соединение по промежуткам
    Продолжительность промежутка : 26 мс. (0,65 видеокадр)
    Время предзагрузки промежутка : 522 мс.







    Скриншоты



    Залил: YArl
    Размер: 2.08 GB (2238021032 Bytes)
    загрузка...
    Рейтинг →
     (голосов: 1, оценка 4/5, голосовать можно 1 раз )

    Другие торренты по теме:

  • Искушение Титаника / Возвращение Титаника 2 (2004) DVDRip


    • Комментарии (0):

      Информация

      Информация

        Посетители, находящиеся в группе Гости, не могут оставлять комментарии в данной новости.

        ↓ Меню



        ↓ Опрос

        А Вы добавили сайт в закладки?
        Да
        Не


        Top 10 за месяц (Фильмы)