.
Авторизация | Регистрация
Хочешь лучшие торренты? Добавь свой email!
Добавить
» » Искушение Титаника / Возвращение Титаника 2 (2004) DVDRip скачать торрент бесплатно




    Искушение Титаника / Возвращение Титаника 2 (2004) DVDRip скачать торрент бесплатно

    Опубликовал: Админ | Дата: 27-02-2015, 11:09 | Просмотров: 697



    Страна: Россия
    Производство: Ракурс
    Жанр: Детектив
    Год выпуска: 2004
    Режиссер: Игорь Талпа, Сергей Виноградов
    В ролях: Игорь Гузун, Сергей Виноградов, Сергей Векслер, Сергей Шнырев, Маргарита Шубина, Лев Прыгунов, Владимир Сулимов, Валентин Смирнитский, Юрий Ваксман, Владимир Гусев

    Описание: Титаник получает задание — войти в контакт с крупным лидером региональной преступной группировки по кличке Никей, который принимает участие в выборах на пост губернатора богатейшей области России. Шансы криминального авторитета на победу возрастают с каждым днем. Задача Титаника — организовать арест Никея с поличным на каком-то конкретном незаконном деянии, чтобы помешать ему баллотироваться, и одновременно обезглавить ОПГ…

    Язык: Русский
    Cубтитры: Нет
    Продолжительность: 12 x ~ 00:44:00



    Качество: DVDRip
    Формат: AVI
    Видео: 640x368 (1.74:1), 25 fps, XviD ~1134 kbps avg, 0.19 bit/pixel
    Аудио: MP3, 48 kHz, 2.0 ~128.00 kbps avg

    MediaInfo
    Общее
    Полное имя : D:1АААIskushenie_titanika_1-12Iskushenie_titanika_01of12_ceryj_RussPlaneta_com.avi
    Формат : AVI
    Формат/Информация : Audio Video Interleave
    Размер файла : 400 Мбайт
    Продолжительность : 44 м.
    Общий поток : 1270 Кбит/сек
    Программа кодирования : VirtualDubMod 1.5.4.1 (build 2178/release)
    Библиотека кодирования : VirtualDubMod build 2178/release

    Видео
    Идентификатор : 0
    Формат : MPEG-4 Visual
    Профиль формата : Advanced Simple@L5
    Параметр BVOP формата : 1
    Параметр QPel формата : Нет
    Параметр GMC формата : Без точки перехода
    Параметр матрицы формата : Выборочная
    Идентификатор кодека : XVID
    Идентификатор кодека/Подсказка : XviD
    Продолжительность : 44 м.
    Битрейт : 1134 Кбит/сек
    Ширина : 640 пикселей
    Высота : 368 пикселей
    Соотношение сторон : 1,739
    Частота кадров : 25,000 кадров/сек
    Цветовое пространство : YUV
    Субдискретизация насыщенности : 4:2:0
    Битовая глубина : 8 бит
    Тип развёртки : Прогрессивная
    Метод сжатия : С потерями
    Бит/(Пиксели*Кадры) : 0.193
    Размер потока : 357 Мбайт (89%)
    Библиотека кодирования : XviD 1.2.0.dev47 (UTC 2006-11-01)

    Аудио
    Идентификатор : 1
    Формат : MPEG Audio
    Версия формата : Version 1
    Профиль формата : Layer 3
    Режим : Joint stereo
    Расширение режима : MS Stereo
    Идентификатор кодека : 55
    Идентификатор кодека/Подсказка : MP3
    Продолжительность : 44 м.
    Вид битрейта : Постоянный
    Битрейт : 128 Кбит/сек
    Каналы : 2 канала
    Частота : 48,0 КГц
    Метод сжатия : С потерями
    Размер потока : 40,3 Мбайт (10%)
    Выравнивание : Соединение по промежуткам
    Продолжительность промежутка : 80 мс. (2,00 видеокадра)
    Время предзагрузки промежутка : 504 мс.
    Библиотека кодирования : LAME3.97
    Залил: YArl
    Размер: 4.69 GB (5033392128 Bytes)

    загрузка...
    Рейтинг →
     (голосов: 1, оценка 3/5, голосовать можно 1 раз )

    Другие торренты по теме:

  • Искушение / Радуга любви (2017) SATRip от Files-x
  • Искушение / Радуга любви (2017) DVB от Files-x
  • Токсичный мститель 3: Последнее искушение Токси / The Toxic Avenger Part III: The Last Temptation of Toxie (1989) DVDRip | A
  • Последнее искушение Христа / The Last Temptation of Christ (1988) BDRip от HQCLUB
  • Искушение замужней женщины 3 / Murder 3 (2013) DVDRip
  • Лёд 9 - Искушение святого простолюдина (2013) MP3 от AGR - Generalfilm
  • Ложное искушение / The Good Shepherd (2006) HD-DVDRip 1080p от FREEISLAND
  • Мальчишник 2: Последнее искушение / Bachelor Party 2: The Last Temptation (2008) WEB-DL 720p от CINEMANIA | P, A скачать через торрент бесплатно


    • Комментарии (0):

      Информация

      Информация

        Посетители, находящиеся в группе Гости, не могут оставлять комментарии в данной новости.

        ↓ Меню



        ↓ Опрос

        А Вы добавили сайт в закладки?
        Да
        Не


        Top 10 за месяц (Фильмы)