.
Авторизация | Регистрация
Хочешь лучшие торренты? Добавь свой email!
Добавить
» » Слепое правосудие / Blind Justice (1994) DVDRip от Leon-masl скачать торрент бесплатно




    Слепое правосудие / Blind Justice (1994) DVDRip от Leon-masl скачать торрент бесплатно

    Опубликовал: Админ | Дата: 27-02-2015, 11:09 | Просмотров: 486



    Информация о фильме
    Название: Слепое правосудие
    Оригинальное название: Blind Justice
    Год выхода: 1994
    Жанр: боевик, вестерн
    Режиссер: Ричард Спенс / Richard Spence
    В ролях: Арманд Ассанте / Armand Assante, Элизабет Шу / Elisabeth Shue, Роберт Дави / Robert Davi, Адам Болдуин / Adam Baldwin, Йен МакЭлхинни / Ian McElhinney, Дэнни Нуччи / Danny Nucci, М. К. Гейни / M.C. Gainey, Титус Уэлливер / Titus Welliver, Джек Блэк / Jack Black, Майкл О’Нил / Michael O;Neill, Дуглас Робертс / Douglas Roberts, Гэри Сервантес / Gary Cervantes, Джесси Дэбсон / Jesse Dabson, Стэнтон Дэвис / Stanton Davis, Джимми Херман / Jimmy Herman, Клэйтон Ланди / Clayton Landey

    О фильме:
    Погруженный в свой собственный Ад, ослепший во время войны стрелок Кэнан, скитаясь по Южным Территориям, сталкивается с бандой Алакрана и сержантом армии США Хастингом, вступившими в смертельную схватку за груз серебра. Слепец, не принимаемый в расчет ни той, ни другой стороной, железной рукой вершит Правосудие..




    Страна: США
    Продолжительность: 01:28:01
    Перевод: Профессиональный (двухголосый закадровый) НТВ

    Файл
    Кодек: Xvid
    Качество: DVDRip
    Видео: 720x544, 23,976 fps, 2164 kbps
    Аудио: AC3, 2 ch, 192 Kbps
    MI
    Общее
    Полное имя : Blind_Justice_1994_DVDRip.avi
    Формат : AVI
    Формат/Информация : Audio Video Interleave
    Размер файла : 1,46 Гбайт
    Продолжительность : 1 ч. 28 м.
    Общий поток : 2365 Кбит/сек
    Программа кодирования : VirtualDubMod 1.5.10.3 | www.virtualdub-fr.org || (build 2550/release)
    Библиотека кодирования : VirtualDubMod build 2550/release

    Видео
    Идентификатор : 0
    Формат : MPEG-4 Visual
    Профиль формата : Advanced Simple@L5
    Параметр BVOP формата : 1
    Параметр QPel формата : Нет
    Параметр GMC формата : Без точки перехода
    Параметр матрицы формата : Выборочная
    Идентификатор кодека : XVID
    Идентификатор кодека/Подсказка : XviD
    Продолжительность : 1 ч. 28 м.
    Битрейт : 2164 Кбит/сек
    Ширина : 720 пикс.
    Высота : 544 пикс.
    Соотношение сторон : 4:3
    Частота кадров : 23,976 кадр/сек
    Цветовое пространство : YUV
    Подвыборка цветности : 4:2:0
    Битовая глубина : 8 бит
    Тип развёртки : Прогрессивная
    Метод сжатия : С потерями
    Бит/(Пиксели*Кадры) : 0.230
    Размер потока : 1,33 Гбайт (91%)
    Библиотека кодирования : XviD 73

    Аудио
    Идентификатор : 1
    Формат : AC-3
    Формат/Информация : Audio Coding 3
    Расширение режима : CM (complete main)
    Идентификатор кодека : 2000
    Продолжительность : 1 ч. 28 м.
    Вид битрейта : Постоянный
    Битрейт : 192 Кбит/сек
    Канал(ы) : 2 канала(ов)
    Расположение каналов : Front: L R
    Частота : 48,0 КГц
    Битовая глубина : 16 бит
    Метод сжатия : С потерями
    Размер потока : 121 Мбайт (8%)
    Выравнивание : Разделение по промежуткам
    Продолжительность промежутка : 42 мс. (1,00 видеокадр)
    Время предзагрузки промежутка : 500 ms
    Скриншоты


    Релиз от: Leon-masl
    Залил: leon-masl
    Размер: 1.46 GB (1562820608 Bytes)
    загрузка...
    Рейтинг →
     (голосов: 1, оценка 4/5, голосовать можно 1 раз )

    Другие торренты по теме:

  • Слепое доверие / Blind Trust (2007) SATRip от RG MixTorrent | P2
  • Слепое пятно / Blindspot (2015) WEB-DLRip | BaibaKo
  • Слепое пятно / Blindspot (2015) WEB-DLRip | NewStudio
  • Слепое пятно / Blindspot (2015) WEB-DLRip | LostFilm
  • Слепое пятно / Blindspot (2015) WEB-DLRip от HitWay | NewStudio
  • Слепая зона (Слепое пятно) (1 сезон: 1-5 серии из 6) / Blindspot / 2015 / ПМ (BaibaKo) / WEB-DL (1080p)
  • Слепое пятно / Blindspot (2015) WEB-DLRip | КПК | NewStudio
  • Слепая зона (Слепое пятно) (1 сезон: 1-5 серии из 22) / Blindspot / 2015 / ПМ (NewStudio) / WEB-DLRip


    • Комментарии (0):

      Информация

      Информация

        Посетители, находящиеся в группе Гости, не могут оставлять комментарии в данной новости.

        ↓ Меню



        ↓ Опрос

        А Вы добавили сайт в закладки?
        Да
        Не


        Top 10 за месяц (Фильмы)