.
Авторизация | Регистрация
Хочешь лучшие торренты? Добавь свой email!
Добавить
» » Пила 3 / Saw III (2007) DVDRip | Расширенная Режиссерская Версия / Unrated Directors Cut | A скачать торрент бесплатно




    Пила 3 / Saw III (2007) DVDRip | Расширенная Режиссерская Версия / Unrated Directors Cut | A скачать торрент бесплатно

    Опубликовал: Админ | Дата: 27-02-2015, 11:09 | Просмотров: 368



    Информация о фильме
    Название: Пила 3 Расширенная Режиссерская версия
    Оригинальное название: Saw III Unrated Director;s Cut
    Год выхода: 2007
    Жанр: Ужасы, Психологический триллер, Детектив
    Режиссер: Даррен Линн Боусман / Darren Lynn Bousman
    В ролях: Тобин Белл, Энгус МакФадьен, Дина Мейер, Шауни Смит, Бахар Сумех и другие

    О фильме:
    Изобретатель зловещих игр остается безнаказанным и в итоге бесследно исчезает вместе со своей сообщницей Амандой. В то время, как детективы тщетно пытаются выйти на его след, доктор Линн Денлон становится очередной жертвой этого маньяка.

    Однажды ночью Линн похищают и привозят в заброшенный склад, где она встречается с самим злодеем, находящимся на смертном одре. Ей приказывают сохранять жизнь этому безумцу, пока Джефф, еще одна из его жертв, не доведет до конца начатую с ним игру… финал которой непредсказуем!

    Отличия Расширенной Режисерской Версии от Просто Режиссерской!

    Существуют две режиссерских версии фильма: Saw III Director;s Cut и Saw III Unrated Director;s Cut.

    Saw III Director;s Cut длиннее обычной версии на 5 минут. Различия:
    Сцена, в которой Эрик ломает свою ногу, показана с близкого ракурса
    К диалогу Керри и Ригга по поводу Эрика добавлено несколько предложений (Керри говорит, что не может нормально спать из-за его исчезновения)
    Когда активируется ловушка Керри, демострируется вид спереди (видно ее внутренние органы)
    В морозильнике добавлены сцены, в которых Джефф стучит в дверь, пытаясь выбраться
    Когда Дыба активируется, ноги и руки Тимоти демонстрируются больше времени. Также во время этой сцены играет музыка, которая отсутствовала в обычной версии фильма.
    Немного изменена сцена драки Эрика и Аманды (например, показано, что Аманда слышала, как Эрик зовет Дэниэла, что ее расстраивает).
    В конце фильма показывается изуродованная голова Линн, после чего фильм заканчивается

    Посмотреть скриншоты различий можно на Movie Censorship.

    Saw III Unrated Director;s Cut длиннее обычной версии на 13 минут.
    Была выпущена к выходу фильма Пила 4, ограниченным тиражом.
    Различия:

    Добавлена сцена драки Аманды и Линн
    Добавлено сцена, которая раскрывает, что Аманды видела кошмары по поводу Адама. После этого она решила убить его, чтобы избавить от мучительной смерти. Также из этой сцены становится ясно, что Пила прекрасно знал о том, что Аманда сделала это
    В концовке, Джон не успевает включить диктофон. Вместо этого его подбирает Джефф, затем садится возле тела Линн и включает пленку. После этого он кричит и начинаются титры
    Последняя пленку почти индентична той, которая звучала в предудущих версиях. Исключение составляет то, что добавлено несколько предложений, а также голос Джона более спокойный и угрожающий

    Здесь раздается именно Saw III Unrated Director;s Cut!


    Страна: США
    Студия: Lionsgate
    Продолжительность: 02:00:50
    Перевод: Авторский (одноголосый, закадровый) Андрей Дольский, Юрий Немахов

    Файл
    Кодек: Xvid
    Качество: DVDRip
    Видео: 720x384 (1.88:1), 23.976 fps, XviD MPEG-4 ~2091 kbps avg, 0.32 bit/pixel
    Звук:
    Аудио: Rus: 48 kHz, AC3 Dolby Digital, 3/2 (L,C,R,l,r) LFE ch, ~448 kbps - Андрей Дольский
    Аудио #2: Rus: 48 kHz, AC3 Dolby Digital, 3/2 (L,C,R,l,r) LFE ch, ~448 kbps - Юрий Немахов
    Аудио #3: Eng: 48 kHz, AC3 Dolby Digital, 6 ch, ~448.00 kbps avg (оригинал)

    Media Info

    Общее
    Полное имя : D:Saw.III.Unrated.2006.DVDRip.2xAVO.by Jigsaw
    Формат : AVI
    Формат/Информация : Audio Video Interleave
    Профиль формата : OpenDML
    Размер файла : 2,90 Гбайт
    Продолжительность : 2 ч. 0 м.
    Общий поток : 3442 Кбит/сек
    Название фильма : Saw III (Unrated) DVDRip by Jigsaw (2xAVO)
    Режиссёр : Internal release for pirat.ca by Jigsaw
    Программа кодирования : VirtualDubMod 1.5.10.2 (build 2540/release)
    Правообладатель : Jigsaw (club AVO) pirat.ca
    Примечание : Еncode 23.07.2013

    Видео
    Идентификатор : 0
    Формат : MPEG-4 Visual
    Профиль формата : Advanced Simple@L5
    Параметр BVOP формата : 2
    Параметр QPel формата : Нет
    Параметр GMC формата : Без точки перехода
    Параметр матрицы формата : Default (MPEG)
    Идентификатор кодека : XVID
    Идентификатор кодека/Подсказка : XviD
    Продолжительность : 2 ч. 0 м.
    Битрейт : 2077 Кбит/сек
    Ширина : 720 пикселей
    Высота : 384 пикселя
    Соотношение сторон : 1,85:1
    Частота кадров : 23,976 кадра/сек
    Цветовое пространство : YUV
    Субдискретизация насыщенности : 4:2:0
    Битовая глубина : 8 бит
    Тип развёртки : Прогрессивная
    Метод сжатия : С потерями
    Бит/(Пиксели*Кадры) : 0.313
    Размер потока : 1,75 Гбайт (60%)
    Библиотека кодирования : XviD 1.2.0.dev47 (UTC 2006-11-01)

    Аудио #1
    Идентификатор : 1
    Формат : AC-3
    Формат/Информация : Audio Coding 3
    Расширение режима : CM (complete main)
    Параметр Endianness формата : Big
    Идентификатор кодека : 2000
    Продолжительность : 2 ч. 0 м.
    Вид битрейта : Постоянный
    Битрейт : 448 Кбит/сек
    Каналы : 6 каналов
    Расположение каналов : Front: L C R, Side: L R, LFE
    Частота : 48,0 КГц
    Битовая глубина : 16 бит
    Метод сжатия : С потерями
    Размер потока : 387 Мбайт (13%)
    Выравнивание : Разделение по промежуткам
    Продолжительность промежутка : 42 мс. (1,00 видеокадр)
    Время предзагрузки промежутка : 500 мс.

    Аудио #2
    Идентификатор : 2
    Формат : AC-3
    Формат/Информация : Audio Coding 3
    Расширение режима : CM (complete main)
    Параметр Endianness формата : Big
    Идентификатор кодека : 2000
    Продолжительность : 2 ч. 0 м.
    Вид битрейта : Постоянный
    Битрейт : 448 Кбит/сек
    Каналы : 6 каналов
    Расположение каналов : Front: L C R, Side: L R, LFE
    Частота : 48,0 КГц
    Битовая глубина : 16 бит
    Метод сжатия : С потерями
    Размер потока : 387 Мбайт (13%)
    Выравнивание : Разделение по промежуткам
    Продолжительность промежутка : 42 мс. (1,00 видеокадр)
    Время предзагрузки промежутка : 500 мс.

    Аудио #3
    Идентификатор : 3
    Формат : AC-3
    Формат/Информация : Audio Coding 3
    Расширение режима : CM (complete main)
    Параметр Endianness формата : Big
    Идентификатор кодека : 2000
    Продолжительность : 2 ч. 0 м.
    Вид битрейта : Постоянный
    Битрейт : 448 Кбит/сек
    Каналы : 6 каналов
    Расположение каналов : Front: L C R, Side: L R, LFE
    Частота : 48,0 КГц
    Битовая глубина : 16 бит
    Метод сжатия : С потерями
    Размер потока : 387 Мбайт (13%)
    Выравнивание : Разделение по промежуткам
    Продолжительность промежутка : 42 мс. (1,00 видеокадр)
    Время предзагрузки промежутка : 500 мс.


    Скриншоты


    Внимание - это эксклюзив, данный рип впервые выкладывается в переводе Андрея Дольского и в качественном видео и аудио-дорожкой 5.1
    Залил: UnSlayeR
    Размер: 2.90 GB (3119157248 Bytes)
    загрузка...
    Рейтинг →
     (голосов: 1, оценка 5/5, голосовать можно 1 раз )

    Другие торренты по теме:

  • Пила 3 / Saw III (2007) DVDRip | Расширенная Режиссерская Версия / Unrated Directors Cut
  • Пила 3 / Saw III (2006) BDRip 720p от HELLYWOOD | Режиссерская версия | D, P, P2, A, L1
  • Пила 3 / Saw III (2006) BDRip 720p от KinoGadget | Расширенная версия | iPad | D


    • Комментарии (0):

      Информация

      Информация

        Посетители, находящиеся в группе Гости, не могут оставлять комментарии в данной новости.

        ↓ Меню



        ↓ Опрос

        А Вы добавили сайт в закладки?
        Да
        Не


        Top 10 за месяц (Фильмы)