.
Авторизация | Регистрация
Хочешь лучшие торренты? Добавь свой email!
Добавить
» » Поезд-беглец / Runaway Train (1985) HDRip от Leon-masl | P2 скачать торрент бесплатно




    Поезд-беглец / Runaway Train (1985) HDRip от Leon-masl | P2 скачать торрент бесплатно

    Опубликовал: Админ | Дата: 27-02-2015, 11:09 | Просмотров: 345



    Информация о фильме
    Название: Поезд-беглец
    Оригинальное название: Runaway Train
    Год выхода: 1985
    Жанр: Триллер, Драма, Криминал
    Режиссер: Андрей Кончаловский / Andrei Konchalovsky
    В ролях: Джон Войт, Эрик Робертс, Ребекка Де Монрэй, Кайл Т. Хеффнер, Джон П. Райан

    О фильме:
    Двое сбежавших из тюрьмы уголовников и молодая женщина - работница железной дороги оказываются в ловушке на несущемся поезде. Машиниста нет, тормоза вышли из строя, поезд мчится по заснеженной пустыне навстречу неизвестности...



    Страна: США
    Продолжительность: 01:50:45
    Перевод: Профессиональный (двухголосый закадровый)

    Файл
    Кодек: Xvid
    Качество: HDRip c BDRip |1080p|
    Видео: 704x384, 23.976 fps, 1685 kbps
    Аудио: AC3, 2 ch, 48.0 khz, 192 kbps
    MI
    Общее
    Полное имя : Poezd_Beglec.HDRip.avi
    Формат : AVI
    Формат/Информация : Audio Video Interleave
    Размер файла : 1,46 Гбайт
    Продолжительность : 1 ч. 50 м.
    Общий поток : 1886 Кбит/сек
    Программа кодирования : VirtualDubMod 1.5.10.2 (build 2542/release)
    Библиотека кодирования : VirtualDubMod build 2542/release

    Видео
    Идентификатор : 0
    Формат : MPEG-4 Visual
    Профиль формата : Advanced Simple@L5
    Параметр BVOP формата : 1
    Параметр QPel формата : Нет
    Параметр GMC формата : Без точки перехода
    Параметр матрицы формата : Выборочная
    Идентификатор кодека : XVID
    Идентификатор кодека/Подсказка : XviD
    Продолжительность : 1 ч. 50 м.
    Битрейт : 1685 Кбит/сек
    Ширина : 704 пикс.
    Высота : 384 пикс.
    Соотношение сторон : 16:9
    Частота кадров : 23,976 кадр/сек
    Цветовое пространство : YUV
    Подвыборка цветности : 4:2:0
    Битовая глубина : 8 бит
    Тип развёртки : Прогрессивная
    Метод сжатия : С потерями
    Бит/(Пиксели*Кадры) : 0.260
    Размер потока : 1,30 Гбайт (89%)
    Библиотека кодирования : XviD 73

    Аудио
    Идентификатор : 1
    Формат : AC-3
    Формат/Информация : Audio Coding 3
    Расширение режима : CM (complete main)
    Идентификатор кодека : 2000
    Продолжительность : 1 ч. 50 м.
    Вид битрейта : Постоянный
    Битрейт : 192 Кбит/сек
    Канал(ы) : 2 канала(ов)
    Расположение каналов : Front: L R
    Частота : 48,0 КГц
    Битовая глубина : 16 бит
    Метод сжатия : С потерями
    Размер потока : 152 Мбайт (10%)
    Выравнивание : Разделение по промежуткам
    Продолжительность промежутка : 42 мс. (1,00 видеокадр)
    Время предзагрузки промежутка : 500 ms
    Скриншоты


    Релиз от: Leon-masl
    Залил: leon-masl
    Размер: 1.46 GB (1566623744 Bytes)
    загрузка...
    Рейтинг →
     (голосов: 1, оценка 4/5, голосовать можно 1 раз )

    Другие торренты по теме:

  • Поезд-беглец / Сбежавший поезд / Runaway Train (1985) BDRip-AVC от 0ptimus | D, P2
  • Поезд-беглец / Сбежавший поезд / Runaway Train (1985) BDRip (720p) от HDClub | D, P2, А
  • Поезд-беглец (Сбежавший поезд) / Runaway Train / 1985 / ДБ, ПД, АП (Горчаков, Володарский, Живов, Кузнецов), СТ / BDRip (720p)
  • Поезд-беглец (Сбежавший поезд) / Runaway Train / 1985 / ДБ, ПД, АП (Живов) / BDRip
  • Поезд-беглец (Сбежавший поезд) / Runaway train / 1985 / ДБ / DVDRip
  • Поезд-беглец / Runaway Train (1985) BDRemux 1080p от Youtracker
  • Поезд-беглец / Runaway Train (1985) BDRip от HQCLUB скачать через торрент бесплатно
  • Поезд-беглец / Runaway Train (1985) HDRip от Scarabey | D


    • Комментарии (0):

      Информация

      Информация

        Посетители, находящиеся в группе Гости, не могут оставлять комментарии в данной новости.

        ↓ Меню



        ↓ Опрос

        А Вы добавили сайт в закладки?
        Да
        Не


        Top 10 за месяц (Фильмы)