.
Авторизация | Регистрация
Хочешь лучшие торренты? Добавь свой email!
Добавить
» » Всё путем / Everything Must Go (2010) HDRip от Youtracker | P скачать торрент бесплатно




    Всё путем / Everything Must Go (2010) HDRip от Youtracker | P скачать торрент бесплатно

    Опубликовал: Админ | Дата: 27-02-2015, 11:09 | Просмотров: 363

    Потеряй всё, и найди себя


    Страна: США, Birdsong Pictures
    Жанр: драма, комедия
    Год выпуска: 2010
    Продолжительность: 01:37:06

    Перевод: Профессиональный (многоголосый закадровый) - лицензия
    Оригинальная аудиодорожка: нет
    Cубтитры: нет

    Режиссер: Дэн Раш / Dan Rush

    В ролях: Уилл Феррелл, Ребекка Холл, Майкл Пенья, Кристофер Джордан Уоллес, Розали Майклс, Стивен Рут, Лора Дерн, Гленн Хоуертон, Argos MacCallum, Тодд Брайант...

    Описание: Это история потерявшего работу человека, выставленного из дома собственной женой. Вместе с лузером на лужайке оказывается и все его имущество, которое он пытается распродать за четыре дня.




    Исходник: DVD5 R5 Everything.Must.Go.2010.BluRay.720p.x264.DTS-HDChina
    Качество: HDRip
    Формат: AVI

    Видео: 720x304 (2.35:1), 25.000 fps, XviD MPEG-4 ~936 kbps avg, 0.178 bit/pixel
    Аудио: Русский: 48 kHz, МР3, 2 ch, 128.00 kbps Constant
    Раздача от:
    MediaInfo

    Общее
    Полное имя : Vse.putem.2010.P.HDRip.745MB_Youtracker_by_avproh.avi
    Формат : AVI
    Формат/Информация : Audio Video Interleave
    Размер файла : 741 Мбайт
    Продолжительность : 1 ч. 37 м.
    Общий поток : 1068 Кбит/сек
    Программа кодирования : VirtualDubMod 1.5.10.3 (build 2550/release)
    Библиотека кодирования : VirtualDubMod build 2550/release

    Видео
    Идентификатор : 0
    Формат : MPEG-4 Visual
    Профиль формата : Advanced Simple@L5
    Параметр BVOP формата : 1
    Параметр QPel формата : Нет
    Параметр GMC формата : Без точки перехода
    Параметр матрицы формата : Выборочная
    Идентификатор кодека : XVID
    Идентификатор кодека/Подсказка : XviD
    Продолжительность : 1 ч. 37 м.
    Битрейт : 936 Кбит/сек
    Ширина : 720 пикселей
    Высота : 304 пикселя
    Соотношение сторон : 2,35:1
    Частота кадров : 23,976 кадра/сек
    Цветовое пространство : YUV
    Субдискретизация насыщенности : 4:2:0
    Битовая глубина : 8 бит
    Тип развёртки : Прогрессивная
    Метод сжатия : С потерями
    Бит/(Пиксели*Кадры) : 0.178
    Размер потока : 650 Мбайт (88%)
    Библиотека кодирования : XviD 65

    Аудио
    Идентификатор : 1
    Формат : MPEG Audio
    Версия формата : Version 1
    Профиль формата : Layer 3
    Режим : Joint stereo
    Расширение режима : MS Stereo
    Идентификатор кодека : 55
    Идентификатор кодека/Подсказка : MP3
    Продолжительность : 1 ч. 33 м.
    Вид битрейта : Постоянный
    Битрейт : 128 Кбит/сек
    Каналы : 2 канала
    Частота : 48,0 КГц
    Метод сжатия : С потерями
    Размер потока : 85,3 Мбайт (11%)
    Выравнивание : Соединение по промежуткам
    Продолжительность промежутка : 43 мс. (1,04 видеокадр)
    Время предзагрузки промежутка : 504 мс.

    Скриншоты



    Залил: avproh
    Размер: 745.26 MB (781457408 Bytes)
    загрузка...
    Рейтинг →
     (голосов: 1, оценка 3/5, голосовать можно 1 раз )

    Другие торренты по теме:

  • Всё путем! / Everything Must Go (2010) BDRip от HQCLUB | Лицензия


    • Комментарии (0):

      Информация

      Информация

        Посетители, находящиеся в группе Гости, не могут оставлять комментарии в данной новости.

        ↓ Меню



        ↓ Опрос

        А Вы добавили сайт в закладки?
        Да
        Не


        Top 10 за месяц (Фильмы)