.
Авторизация | Регистрация
Хочешь лучшие торренты? Добавь свой email!
Добавить
» » Закон Мерфи / Murphys Law (1986) HDTVRip-AVC | L1, А скачать торрент бесплатно




    Закон Мерфи / Murphys Law (1986) HDTVRip-AVC | L1, А скачать торрент бесплатно

    Опубликовал: Админ | Дата: 27-02-2015, 11:09 | Просмотров: 409


    Закон Мерфи / Murphy;s Law

    Страна: США
    Жанр: боевик, триллер
    Год выпуска: 1986
    Продолжительность: 01:36:23
    Перевод: Любительский одноголосый (Дмитрий Есарев) ненормативная лексика, Авторский одноголосый (Леонид Володарский)
    Cубтитры: нет
    Оригинальная аудиодорожка: нет

    Режиссер: Дж. Ли Томпсон / J. Lee Thompson

    В ролях: Чарлз Бронсон, Кэтлин Уилхойте, Кэрри Снодгресс, Роберт Ф. Лайонс, Ричард Романус

    Описание:
    Прославленный и нестареющий Чарльз Бронсон играет Джека Мерфи, детектива из Лос-Анджелеса, крутого парня, немногословного, сурового и решительного. И вдруг он становится мишенью… женщины-убийцы, поклявшейся уничтожить его и действующей, как настоящий профессионал.

    Вскоре выясняется, что не только эта психопатка желает Мерфи смерти: на хвост ему села гангстерская группировка… как всегда у Ли Томпсона, все очень динамично, много стрельбы, драк, погонь, крови. Выполнено все это на высоком качественном уровне, захватывает и не отпускает до самого конца.




    Качество: HDTVRip-AVC
    Формат: MKV
    Видео: 2778 Кбит/сек, 1024*576 (16:9), в 25.000 кадров/сек, AVC
    Аудио 1: Russian, 224 Кбит/сек, 48,0 КГц, 16 бит, 2 канала, АС-3
    Аудио 2: Russian, 224 Кбит/сек, 48,0 КГц, 16 бит, 2 канала, АС-3

    MediaInfo
    Формат : Matroska
    Версия формата : Version 4 / Version 2
    Размер файла : 2,17 Гбайт
    Продолжительность : 1 ч. 36 м.
    Режим общего битрейта : Переменный
    Общий поток : 3225 Кбит/сек
    Название фильма : Релиз Переулка Переводмана
    Дата кодирования : UTC 2013-08-06 14:28:14
    Программа кодирования : mkvmerge v6.0.0 (;Coming Up For Air;) built on Jan 20 2013 09:52:00
    Библиотека кодирования : libebml v1.3.0 libmatroska v1.4.0

    Видео
    Идентификатор : 1
    Формат : AVC
    Формат/Информация : Advanced Video Codec
    Профиль формата : High@L4.1
    Параметр CABAC формата : Да
    Параметр ReFrames формата : 14 кадров
    Идентификатор кодека : V_MPEG4/ISO/AVC
    Продолжительность : 1 ч. 36 м.
    Вид битрейта : Переменный
    Битрейт : 2778 Кбит/сек
    Максимальный битрейт : 50,0 Мбит/сек
    Ширина : 1024 пикселя
    Высота : 576 пикселей
    Соотношение сторон : 16:9
    Режим частоты кадров : Постоянный
    Частота кадров : 25,000 кадров/сек
    Цветовое пространство : YUV
    Субдискретизация насыщенности : 4:2:0
    Битовая глубина : 8 бит
    Тип развёртки : Прогрессивная
    Бит/(Пиксели*Кадры) : 0.188
    Размер потока : 1,83 Гбайт (84%)
    Заголовок : рип от Переводмана
    Библиотека кодирования : x264 core 133 r2334 a3ac64b
    Настройки программы : cabac=1 / ref=14 / deblock=1:-3:-3 / analyse=0x3:0x133 / me=umh / subme=10 / psy=1 / psy_rd=1.00:0.00 / mixed_ref=1 / me_range=32 / chroma_me=1 / trellis=2 / 8x8dct=1 / cqm=0 / deadzone=21,11 / fast_pskip=0 / chroma_qp_offset=-2 / threads=6 / lookahead_threads=1 / sliced_threads=0 / nr=0 / decimate=0 / interlaced=0 / bluray_compat=0 / constrained_intra=0 / bframes=16 / b_pyramid=2 / b_adapt=2 / b_bias=0 / direct=3 / weightb=1 / open_gop=0 / weightp=2 / keyint=250 / keyint_min=25 / scenecut=40 / intra_refresh=0 / rc_lookahead=60 / rc=2pass / mbtree=1 / bitrate=2778 / ratetol=1.0 / qcomp=0.60 / qpmin=10 / qpmax=51 / qpstep=4 / cplxblur=20.0 / qblur=0.5 / vbv_maxrate=50000 / vbv_bufsize=62500 / nal_hrd=vbr / ip_ratio=1.40 / aq=1:1.00
    Язык : English
    Default : Да
    Forced : Нет

    Аудио #1
    Идентификатор : 2
    Формат : AC-3
    Формат/Информация : Audio Coding 3
    Расширение режима : CM (complete main)
    Параметр Endianness формата : Big
    Идентификатор кодека : A_AC3
    Продолжительность : 1 ч. 36 м.
    Вид битрейта : Постоянный
    Битрейт : 224 Кбит/сек
    Каналы : 2 канала
    Расположение каналов : Front: L R
    Частота : 48,0 КГц
    Битовая глубина : 16 бит
    Метод сжатия : С потерями
    Размер потока : 155 Мбайт (7%)
    Заголовок : AVO Дмитрий Есарев
    Язык : Russian
    Default : Да
    Forced : Нет

    Аудио #2
    Идентификатор : 3
    Формат : AC-3
    Формат/Информация : Audio Coding 3
    Расширение режима : CM (complete main)
    Параметр Endianness формата : Big
    Идентификатор кодека : A_AC3
    Продолжительность : 1 ч. 36 м.
    Вид битрейта : Постоянный
    Битрейт : 224 Кбит/сек
    Каналы : 2 канала
    Расположение каналов : Front: L R
    Частота : 48,0 КГц
    Битовая глубина : 16 бит
    Метод сжатия : С потерями
    Размер потока : 155 Мбайт (7%)
    Default : Нет
    Forced : Нет
    Скриншоты

    Размер: 2.17 GB (2332897208 Bytes)
    загрузка...
    Рейтинг →
     (голосов: 1, оценка 3/5, голосовать можно 1 раз )

    Другие торренты по теме:

  • Закон Мерфи / Murphys Law (1986) HDRip | P
  • Закон Мерфи / Murphys Law (1986) BDRip от Koenig | P, A
  • Закон Мерфи / Murphys Law (1986) BDRemux 1080p | P, A


    • Комментарии (0):

      Информация

      Информация

        Посетители, находящиеся в группе Гости, не могут оставлять комментарии в данной новости.

        ↓ Меню



        ↓ Опрос

        А Вы добавили сайт в закладки?
        Да
        Не


        Top 10 за месяц (Фильмы)