.
Авторизация | Регистрация
Хочешь лучшие торренты? Добавь свой email!
Добавить
» » Зомби по имени Фидо / Fido (2006) BDRip 720p | P скачать торрент бесплатно




    Зомби по имени Фидо / Fido (2006) BDRip 720p | P скачать торрент бесплатно

    Опубликовал: Админ | Дата: 27-02-2015, 11:09 | Просмотров: 388



    Название: Зомби по имени Фидо
    Оригинальное название: Fido
    Год выпуска: 2006
    Жанр: Ужасы, драма, мелодрама, комедия
    Выпущено: Канада, Anagram Pictures Inc., British Columbia Film Commission
    Режиссер: Эндрю Карри
    В ролях: Кэрри-Энн Мосс, Билли Коннолли, Дилан Бэйкер, Соня Беннет, Дженнифер Клемент, Роб ЛаБелль, Аарон Браун, Брэндон Олдз, Алексия Фаст, Генри Черни, Тим Блейк Нельсон, Дэвид Кэй, Жан Скоржевский, Энди Паркин, Линн Пендлтон

    О фильме: Добро пожаловать в Уиллард, маленький город в идиллическом мире где-то в 50-х, где солнце светит каждый день, все знают своих соседей, а зомби разносят газеты…Годы назад Земля пролетела через облако космической пыли, заставившей мёртвых восстать с ненасытной жаждой человеческой плоти. Террор распространился по планете до тех пор, пока не был изобретён ошейник, сделавший зомби управляемыми и даже полезными. Благодаря изобретению компании ZomCon зомби стали садовниками, молочниками, прислугой, даже домашними любимцами. ZomCon старается показать, что ситуация у них под контролем. Но так ли это на самом деле? Тимми Робинсон так не думает. Он полагает, что мир введён в заблуждение. Будучи одиноким, Тимми проводит много времени в своей комнате, даже собственные родители не замечают его. Так что когда мама покупает зомби, чтобы тот делал работу по дому, это становится для него сюрпризом. Он сильно удивляется, когда нежить предлагает поиграть в мяч. А после того как зомби спасёт героя от хулиганов, рождается настоящая дружба, и Тимми называет чудовище - Фидо. Но когда ошейник Фидо выходит из строя, соседям приходится несладко. Чтобы распутать дело, известный специалист по контролю над зомби, мистер Боттомс, приезжает в город…

    Качество: BDRip 720p
    Размер: 3.45 ГБ
    Продолжительность: 01:32:30

    Видео: MPEG4 AVC, 4259 Кбит/с, 1276x544
    Аудио: русский, 48 kHz, AC3, 6 ch, 448 kbps avg, Профессиональный многоголосый

    Внешние файлы
    Аудио: украинский, 48 kHz, AC3, 2 ch, 192 kbps avg, 1 1 Профессиональный многоголосый
    Аудио: английский, 48 kHz, AC3, 6 ch, 448 kbps avg, Оригинал
    Аудио: английский, 48 kHz, AC3, 2 ch, 192 kbps avg, комментарий
    Субтитры: русские
    Субтитры: английские

    Сравнение с исходником



    Из отзывов...
    Mrs_First

    Зо-о-омби? Вау, зомби! (с) Чиллервидео

    Как не особый любитель пощекотать собственные нервы у экрана, зомбяшную тему смотрю предпочтительно в комедийном варианте. И Фидо в этом списке — классика, к которой лично я ни с какой стороны не смогла подкопаться.
    Рекламно-идеальный мир городка напоминает тихий (сначала тихий, конечно) городок из Регуляторов Стивена Кинга. Чистой воды краски, блестящие улыбки, стройные пирамидки почти конструкторных домиков, в которых живут глянцевые и до безобразия одинаковые семьи, в услужении (и не больше!) у которых — прирученные мертвецы. В упорядоченном мире, конечно, нашелся нарушитель порядка — мальчишка, который, ужас-то какой, подружился с чудовищем!
    История чудовищности живых людей и сердечности умерших, снятая… даже не знаю, до безупречности стильно,что ли! Чёрный юмор, точная картинка, великолепные актёры и просто шикарные девочка с папашей на поводке в финале!

    10 из 10

    Ибо ну не смогла никак придраться!
    Кинопоиск
    Лог х264
    ---Information 07.08.2013 4:35:09 avs info: 1276x544p 1:1 @ 30000/1001 fps (cfr)
    ---Information 07.08.2013 4:35:09 x264 info: using SAR=1/1
    ---Information 07.08.2013 4:35:09 x264 info: using cpu capabilities: MMX2 SSE2Fast SSSE3 SSE4.2
    ---Information 07.08.2013 4:35:09 x264 info: profile High, level 4.1
    ---Information 07.08.2013 11:42:18 x264 info: frame I:1081 Avg QP:16.30 size:109156
    ---Information 07.08.2013 11:42:20 x264 info: frame P:39003 Avg QP:19.29 size: 32891
    ---Information 07.08.2013 11:42:20 x264 info: frame B:125094 Avg QP:20.24 size: 11271
    ---Information 07.08.2013 11:42:20 x264 info: consecutive B-frames: 2.5% 5.2% 11.0% 14.6% 41.1% 11.9% 2.6% 1.7% 9.4%
    ---Information 07.08.2013 11:42:20 x264 info: mb I I16..4: 8.2% 66.6% 25.2%
    ---Information 07.08.2013 11:42:20 x264 info: mb P I16..4: 0.5% 9.8% 1.3% P16..4: 38.6% 28.1% 16.8% 0.0% 0.0% skip: 4.9%
    ---Information 07.08.2013 11:42:20 x264 info: mb B I16..4: 0.1% 0.9% 0.1% B16..8: 33.5% 11.2% 3.2% direct:10.5% skip:40.5% L0:42.6% L1:41.7% BI:15.7%
    ---Information 07.08.2013 11:42:20 x264 info: 8x8 transform intra:81.7% inter:53.7%
    ---Information 07.08.2013 11:42:20 x264 info: direct mvs spatial:98.2% temporal:1.8%
    ---Information 07.08.2013 11:42:20 x264 info: coded y,uvDC,uvAC intra: 94.6% 85.7% 67.7% inter: 31.2% 31.6% 13.2%
    ---Information 07.08.2013 11:42:20 x264 info: i16 v,h,dc,p: 27% 20% 11% 41%
    ---Information 07.08.2013 11:42:20 x264 info: i8 v,h,dc,ddl,ddr,vr,hd,vl,hu: 14% 12% 10% 8% 11% 12% 11% 12% 12%
    ---Information 07.08.2013 11:42:20 x264 info: i4 v,h,dc,ddl,ddr,vr,hd,vl,hu: 14% 13% 3% 8% 14% 14% 13% 11% 12%
    ---Information 07.08.2013 11:42:20 x264 info: i8c dc,h,v,p: 44% 23% 19% 15%
    ---Information 07.08.2013 11:42:20 x264 info: Weighted P-Frames: Y:2.7% UV:1.5%
    ---Information 07.08.2013 11:42:20 x264 info: ref P L0: 44.8% 11.3% 17.9% 6.4% 5.5% 4.1% 3.7% 2.1% 2.0% 1.9% 0.3% 0.0%
    ---Information 07.08.2013 11:42:20 x264 info: ref B L0: 63.9% 15.4% 8.8% 3.7% 2.6% 2.3% 1.9% 0.8% 0.5%
    ---Information 07.08.2013 11:42:20 x264 info: ref B L1: 90.4% 9.6%
    ---Information 07.08.2013 11:42:20 x264 info: kb/s:4079.93
    ---Information 07.08.2013 11:42:20 encoded 165178 frames, 6.45 fps, 4079.93 kb/s
    --Information 07.08.2013 11:42:28 Final statistics
    ---Information 07.08.2013 11:42:28 Video Bitrate Desired: 4259 kbit/s
    ---Information 07.08.2013 11:42:28 Video Bitrate Obtained (approximate): 4081 kbit/s
    --Information 07.08.2013 11:42:28 MediaInfo
    ---Information File: E:RipZombi.po.imeni.Fido.2006.x264.BDRipZombi.po.imeni.Fido.2006.x264.BDRip.720p.mkv
    MediaInfo
    Общее
    Полное имя : E:VideoZombi.po.imeni.Fido.2006.x264.BDRip.720pZombi.po.imeni.Fido.2006.Commentary.eng.ac3
    Формат : AC-3
    Формат/Информация : Audio Coding 3
    Размер файла : 127 Мбайт
    Продолжительность : 1 ч. 32 м.
    Режим общего битрейта : Постоянный
    Общий поток : 192 Кбит/сек

    Аудио
    Формат : AC-3
    Формат/Информация : Audio Coding 3
    Расширение режима : CM (complete main)
    Параметр Endianness формата : Big
    Продолжительность : 1 ч. 32 м.
    Вид битрейта : Постоянный
    Битрейт : 192 Кбит/сек
    Каналы : 2 канала
    Расположение каналов : Front: L R
    Частота : 48,0 КГц
    Битовая глубина : 16 бит
    Метод сжатия : С потерями
    Размер потока : 127 Мбайт (100%)

    Общее
    Полное имя : E:VideoZombi.po.imeni.Fido.2006.x264.BDRip.720pZombi.po.imeni.Fido.2006.eng.srt
    Формат : SubRip
    Размер файла : 68,9 Кбайт

    Текст
    Формат : SubRip
    Метод сжатия : Без потерь

    Общее
    Полное имя : E:VideoZombi.po.imeni.Fido.2006.x264.BDRip.720pZombi.po.imeni.Fido.2006.MVO.ukr.1 1.ac3
    Формат : AC-3
    Формат/Информация : Audio Coding 3
    Размер файла : 127 Мбайт
    Продолжительность : 1 ч. 32 м.
    Режим общего битрейта : Постоянный
    Общий поток : 192 Кбит/сек

    Аудио
    Формат : AC-3
    Формат/Информация : Audio Coding 3
    Расширение режима : CM (complete main)
    Параметр Endianness формата : Big
    Продолжительность : 1 ч. 32 м.
    Вид битрейта : Постоянный
    Битрейт : 192 Кбит/сек
    Каналы : 2 канала
    Расположение каналов : Front: L R
    Частота : 48,0 КГц
    Битовая глубина : 16 бит
    Метод сжатия : С потерями
    Размер потока : 127 Мбайт (100%)

    Общее
    Полное имя : E:VideoZombi.po.imeni.Fido.2006.x264.BDRip.720pZombi.po.imeni.Fido.2006.Original.eng.ac3
    Формат : AC-3
    Формат/Информация : Audio Coding 3
    Размер файла : 296 Мбайт
    Продолжительность : 1 ч. 32 м.
    Режим общего битрейта : Постоянный
    Общий поток : 448 Кбит/сек

    Аудио
    Формат : AC-3
    Формат/Информация : Audio Coding 3
    Расширение режима : CM (complete main)
    Параметр Endianness формата : Big
    Продолжительность : 1 ч. 32 м.
    Вид битрейта : Постоянный
    Битрейт : 448 Кбит/сек
    Каналы : 6 каналов
    Расположение каналов : Front: L C R, Side: L R, LFE
    Частота : 48,0 КГц
    Битовая глубина : 16 бит
    Метод сжатия : С потерями
    Размер потока : 296 Мбайт (100%)

    Общее
    Полное имя : E:VideoZombi.po.imeni.Fido.2006.x264.BDRip.720pZombi.po.imeni.Fido.2006.rus.srt
    Формат : SubRip
    Размер файла : 87,1 Кбайт

    Текст
    Формат : SubRip
    Метод сжатия : Без потерь

    Общее
    Уникальный идентификатор : 188370792622358076844455327650073381169 (0x8DB6E51FC3AD80169B942E54A2398931)
    Полное имя : E:VideoZombi.po.imeni.Fido.2006.x264.BDRip.720pZombi.po.imeni.Fido.2006.x264.BDRip.720p.mkv
    Формат : Matroska
    Версия формата : Version 4 / Version 2
    Размер файла : 2,91 Гбайт
    Продолжительность : 1 ч. 32 м.
    Общий поток : 4502 Кбит/сек
    Название фильма : Зомби по имени Фидо / Fido / 2006 / BDRip -- STarankov
    Дата кодирования : UTC 2013-08-07 10:32:48
    Программа кодирования : mkvmerge v6.3.0 (;You can;t stop me!;) built on Jun 28 2013 20:09:41
    Библиотека кодирования : libebml v1.3.0 libmatroska v1.4.0

    Видео
    Идентификатор : 1
    Формат : AVC
    Формат/Информация : Advanced Video Codec
    Профиль формата : High@L4.1
    Параметр CABAC формата : Да
    Параметр ReFrames формата : 10 кадров
    Идентификатор кодека : V_MPEG4/ISO/AVC
    Продолжительность : 1 ч. 32 м.
    Битрейт : 3964 Кбит/сек
    Номинальный битрейт : 4259 Кбит/сек
    Ширина : 1276 пикселей
    Высота : 544 пикселя
    Соотношение сторон : 2,35:1
    Режим частоты кадров : Постоянный
    Частота кадров : 29,970 кадров/сек
    Цветовое пространство : YUV
    Субдискретизация насыщенности : 4:2:0
    Битовая глубина : 8 бит
    Тип развёртки : Прогрессивная
    Бит/(Пиксели*Кадры) : 0.191
    Размер потока : 2,56 Гбайт (88%)
    Библиотека кодирования : x264 core 135 r2345 f0c1c53
    Залил: msltel
    Размер: 3.45 GB (3700191001 Bytes)

    загрузка...
    Рейтинг →
     (голосов: 1, оценка 5/5, голосовать можно 1 раз )

    Другие торренты по теме:

  • Зомби по имени Шон / Shaun of the Dead (2004) DVD9 | Tycoon-studio
  • Зомби по соседству / The Neighbor Zombie / Yieutjib jombi (2010) DVDRip от Brazzass скачать бесплатно через торрент
  • Зомби по имени Шон / Shaun of the Dead (2004) BDRip 1080p скачать через торрент бесплатно
  • Зомби по имени Фидо / Fido (2006) BDRip от HQCLUB
  • Зомби по имени Шон / Shaun of the Dead (2004) BDRip-AVC от HELLYWOOD


    • Комментарии (0):

      Информация

      Информация

        Посетители, находящиеся в группе Гости, не могут оставлять комментарии в данной новости.

        ↓ Меню



        ↓ Опрос

        А Вы добавили сайт в закладки?
        Да
        Не


        Top 10 за месяц (Фильмы)