.
Авторизация | Регистрация
Хочешь лучшие торренты? Добавь свой email!
Добавить
» » Джек – покоритель великанов / Jack the Giant Slayer (2013) BDRip 1080p | Чистый звук | 60 fps скачать торрент бесплатно




    Джек – покоритель великанов / Jack the Giant Slayer (2013) BDRip 1080p | Чистый звук | 60 fps скачать торрент бесплатно

    Опубликовал: Админ | Дата: 27-02-2015, 11:09 | Просмотров: 369

    Джек – покоритель великанов / Jack the Giant Slayer (2013)
    BDRip 1080p 60 fps
    If you think you know the story, you don;t know Jack. Русское название: Джек – покоритель великанов
    Оригинальное название: Jack the Giant Slayer
    Год выпуска: 2013
    Производство: США
    Жанр: Фэнтези, драма, мелодрама, приключения
    Перевод: Дублированный (LINE)
    Оригинальный - Английский Дата мировой премьеры: 27 февраля 2013
    Дата российской премьеры: 21 марта 2013, Каро-Премьер
    Дата выхода DVD релиза: 20 июня 2013, CP Дистрибуция
    Дата выхода Blu-Ray релиза: 20 июня 2013, CP Дистрибуция Режиссер: Брайан Сингер
    Продюсер: Дэвид Добкин, Ори Мармур, Патрик МакКормик
    Актеры: Николас Холт, Эван МакГрегор, Билл Найи, Стэнли Туччи, Иэн МакШейн, Уорвик Дэвис, Эдди Марсан, Юэн Бремнер, Элинор Томлинсон, Джон Кассир Описание фильма:
    Продолжительность: 01:54:20
    Качество видео: BDRip

    Дополнительно :
    Перед тем , как качать основной файл , скачивайте сэмпл , для проверки воспроизведения данного релиза на вашем оборудовании !!!

    MediaInfo Bitrate Viewer



    Writing application : mkvmerge v3.4.0 (;Rapunzel;) сборка от May 15 2010 09:38:20
    Writing library : libebml v0.8.0 libmatroska v0.9.0

    Video
    ID : 1
    Format : AVC
    Format/Info : Advanced Video Codec
    Format profile : High@L4.1
    Format settings, CABAC : Yes
    Format settings, ReFrames : 5 frames
    Codec ID : V_MPEG4/ISO/AVC
    Duration : 1h 54mn
    Bit rate : 30.0 Mbps
    Width : 1 920 pixels
    Height : 800 pixels
    Display aspect ratio : 2.40:1
    Frame rate mode : Constant
    Frame rate : 59.880 fps
    Original frame rate : 59.940 fps
    Color space : YUV
    Chroma subsampling : 4:2:0
    Bit depth : 8 bits
    Scan type : Progressive
    Bits/(Pixel*Frame) : 0.326
    Stream size : 23.5 GiB (95%)
    Title : релиз от kryl1411
    Writing library : x264 core 130 r2273 b3065e6
    Encoding settings : cabac=1 / ref=5 / deblock=1:-3:-3 / analyse=0x3:0x133 / me=esa / subme=9 / psy=1 / psy_rd=1.00:0.00 / mixed_ref=1 / me_range=35 / chroma_me=1 / trellis=2 / 8x8dct=1 / cqm=0 / deadzone=21,11 / fast_pskip=1 / chroma_qp_offset=-2 / threads=12 / lookahead_threads=1 / sliced_threads=0 / nr=0 / decimate=1 / interlaced=0 / bluray_compat=0 / constrained_intra=0 / bframes=3 / b_pyramid=2 / b_adapt=2 / b_bias=0 / direct=3 / weightb=1 / open_gop=0 / weightp=2 / keyint=599 / keyint_min=59 / scenecut=40 / intra_refresh=0 / rc_lookahead=60 / rc=2pass / mbtree=1 / bitrate=30013 / ratetol=1.0 / qcomp=0.60 / qpmin=0 / qpmax=69 / qpstep=4 / cplxblur=20.0 / qblur=0.5 / vbv_maxrate=62500 / vbv_bufsize=78125 / nal_hrd=none / ip_ratio=1.40 / aq=1:1.00
    Language : English
    Default : No
    Forced : No

    Audio #1
    ID : 2
    Format : AC-3
    Format/Info : Audio Coding 3
    Mode extension : CM (complete main)
    Format settings, Endianness : Big
    Codec ID : A_AC3
    Duration : 1h 54mn
    Bit rate mode : Constant
    Bit rate : 448 Kbps
    Channel(s) : 6 channels
    Channel positions : Front: L C R, Side: L R, LFE
    Sampling rate : 48.0 KHz
    Bit depth : 16 bits
    Compression mode : Lossy
    Stream size : 366 MiB (1%)
    Title : LINE (чистый звук)
    Language : Russian
    Default : No
    Forced : Yes

    Audio #2
    ID : 3
    Format : AC-3
    Format/Info : Audio Coding 3
    Mode extension : CM (complete main)
    Format settings, Endianness : Big
    Codec ID : A_AC3
    Duration : 1h 54mn
    Bit rate mode : Constant
    Bit rate : 448 Kbps
    Channel(s) : 6 channels
    Channel positions : Front: L C R, Side: L R, LFE
    Sampling rate : 48.0 KHz
    Bit depth : 16 bits
    Compression mode : Lossy
    Stream size : 366 MiB (1%)
    Title : Original | DD 5.1 @ 448 kbps
    Language : English
    Default : No
    Forced : No
    Видеокодек: MPEG-4 AVC/H.264
    Битрейт видео:30.0 Mbps
    Размер кадра: 1920 x 800 (2.400)
    Аудиокодек: AC3, 6ch, 48.0 KHz
    Аудио 1: 448 Kbps, 6ch - Дубляж(LINE)
    Аудио 2: 448 Kbps, 6ch - Английский




    Размер: 24.67 GB (26489780545 Bytes)
    загрузка...
    Рейтинг →
     (голосов: 1, оценка 5/5, голосовать можно 1 раз )

    Другие торренты по теме:

  • Снеговик / Ледяной Джек / Джек Фрост / Jack Frost (1998) DVDRip-AVC
  • Как Джек встретил Джилл / Джек и Джилл против Мира / Jack and Jill vs the World (2008) DVD5 от Youtracker | P2 | Сжатый
  • Под псевдонимом: Джек Стронг / Джек Стронг / Jack Strong (2014) BDRemux 1080р от ExKinoRay скачать через торрент бесплатно
  • Джек-Джек атакует / Jack-Jack Attack (2005) BDRip 720 от SuperMin
  • Джек Ричер / Jack Reacher (2012) CAMRip | L1
  • Нью-Джек-Сити / New Jack City (1991) BDRip 720p jn balshik
  • OST - Джек: Покоритель великанов / Jack The Giant Slayer (2013) MP3
  • Джек - покоритель великанов / Jack the Giant Killer (2013) HDRip | Трейлер


    • Комментарии (0):

      Информация

      Информация

        Посетители, находящиеся в группе Гости, не могут оставлять комментарии в данной новости.

        ↓ Меню



        ↓ Опрос

        А Вы добавили сайт в закладки?
        Да
        Не


        Top 10 за месяц (Фильмы)