.
Авторизация | Регистрация
Хочешь лучшие торренты? Добавь свой email!
Добавить
» » Железный кулак / The Man with the Iron Fists (2012) BDRip 1080p | Baibako | Раcширенная версия скачать торрент бесплатно




    Железный кулак / The Man with the Iron Fists (2012) BDRip 1080p | Baibako | Раcширенная версия скачать торрент бесплатно

    Опубликовал: Админ | Дата: 27-02-2015, 11:09 | Просмотров: 360



    Информация о фильме
    Название: Железный кулак / Человек с железными кулаками
    Оригинальное название: The Man with the Iron Fists
    Год выпуска: 2012
    Жанр: Боевик
    Режиссер: Роберт Фитцджеральд Диггз
    В ролях: Рассел Кроу, Люси Лью, Байрон Манн, Джейми Чунг, Рик Юн, Дэйв Батиста, Кунг Ле, Джин Онг, Гордон Лиу, Чен Куан Тай, Ка-Ян Леунг, Хой Линь, Грэйс Хуанг, Телли Лью, Йояо Хсю, Пэм Гриер, Жу Жу, Дэниэл Ву, Эндрю Нг, Вэн-Чжун Донг, Чжан Де Ре, Лу Кай, Лью ЧанЧжан, Брайан Янг, Ху Минноу, Масанобу Отсука, Рен Луоминь, Элай Рот, Даррен Э. Скотт, Хонг Джиа, Лью Иньди, Диди Цянь, Лу Вэй, Ючень Ду, Бетти Чжоу, Джон Т. Бенн, Джэйк Гарбер, Бо ван Эрвен Доренс, Деннис Чан, Осрик Чау, Чанг Чжоу, Селина Жаде, Изабелла Цянь, Лянь Шулян, Теренс Йин

    О фильме: События развернутся в древнем феодальном Китае. Фильм расскажет историю чернокожего кузнеца, который умеет делать оружие и с легкой руки снабжает им всех, у кого есть чем заплатить. Китай того времени - жестокое место, поэтому оружие и знание навыков кунг-фу помогут жителям близлежащей деревни защитить свои дома и семьи от других кланов…

    Расширенная версия, есть места без перевода.



    Выпущено: США, Гонконг, Arcade Pictures, Iron Fists
    Продолжительность: 01:47:26
    Перевод: Профессиональный (многоголосый, закадровый) - Baibako

    Файл
    Качество: BDRip 1080p
    Формат: MKV
    Видео: MPEG4/AVC, 10.1 Мбит/с, 1920x800, 2.40:1, 23.976 Кадр/с
    Аудио 1: Русский, AC3, 6 ch, 640 Кбит/с
    Аудио 2: Английский, AC3, 6 ch, 640 Кбит/с
    Субтитры: Русские, английские (UTF-8)
    Навигация по главам: Есть

    MI:
    Общее
    Уникальный идентификатор : 206121839839406581363435887148354109339 (0x9B119F5295A56646A82A11A959B9FF9B)
    Полное имя : The Man with the Iron Fists(2012)BDRip.1080p.mkv
    Формат : Matroska
    Версия формата : Version 2
    Размер файла : 8,54 Гбайт
    Продолжительность : 1 ч. 47 м.
    Общий поток : 11,4 Мбит/сек
    Название фильма : BLUEBIRD
    Дата кодирования : UTC 2013-08-03 20:00:21
    Программа кодирования : mkvmerge v5.8.0 (;No Sleep / Pillow;) built on Sep 2 2012 15:37:04
    Библиотека кодирования : libebml v1.2.3 libmatroska v1.3.0

    Видео
    Идентификатор : 1
    Формат : AVC
    Формат/Информация : Advanced Video Codec
    Профиль формата : High@L4.1
    Параметр CABAC формата : Да
    Параметр ReFrames формата : 5 кадров
    Режим смешивания : Header stripping
    Идентификатор кодека : V_MPEG4/ISO/AVC
    Продолжительность : 1 ч. 47 м.
    Битрейт : 10,1 Мбит/сек
    Ширина : 1920 пикселей
    Высота : 800 пикселей
    Соотношение сторон : 2,40:1
    Режим частоты кадров : Постоянный
    Частота кадров : 23,976 кадра/сек
    Цветовое пространство : YUV
    Субдискретизация насыщенности : 4:2:0
    Битовая глубина : 8 бит
    Тип развёртки : Прогрессивная
    Бит/(Пиксели*Кадры) : 0.274
    Размер потока : 7,40 Гбайт (87%)
    Библиотека кодирования : x264 core 128 r2216 198a7ea
    Настройки программы : cabac=1 / ref=5 / deblock=1:-3:-3 / analyse=0x3:0x113 / me=umh / subme=10 / psy=1 / psy_rd=1.05:0.10 / mixed_ref=1 / me_range=48 / chroma_me=1 / trellis=2 / 8x8dct=1 / cqm=0 / deadzone=21,11 / fast_pskip=0 / chroma_qp_offset=-2 / threads=12 / lookahead_threads=2 / sliced_threads=0 / nr=0 / decimate=1 / interlaced=0 / bluray_compat=0 / constrained_intra=0 / bframes=6 / b_pyramid=2 / b_adapt=2 / b_bias=0 / direct=3 / weightb=1 / open_gop=0 / weightp=2 / keyint=250 / keyint_min=23 / scenecut=40 / intra_refresh=0 / rc_lookahead=40 / rc=2pass / mbtree=0 / bitrate=10096 / ratetol=2.0 / qcomp=0.70 / qpmin=0 / qpmax=69 / qpstep=4 / cplxblur=20.0 / qblur=0.5 / vbv_maxrate=40000 / vbv_bufsize=30000 / nal_hrd=none / ip_ratio=1.40 / pb_ratio=1.30 / aq=2:1.00
    Язык : English
    Default : Да
    Forced : Нет

    Аудио #1
    Идентификатор : 2
    Формат : AC-3
    Формат/Информация : Audio Coding 3
    Расширение режима : CM (complete main)
    Параметр Endianness формата : Big
    Идентификатор кодека : A_AC3
    Продолжительность : 1 ч. 47 м.
    Вид битрейта : Постоянный
    Битрейт : 640 Кбит/сек
    Каналы : 6 каналов
    Расположение каналов : Front: L C R, Side: L R, LFE
    Частота : 48,0 КГц
    Битовая глубина : 16 бит
    Метод сжатия : С потерями
    Размер потока : 492 Мбайт (6%)
    Язык : Russian
    Default : Да
    Forced : Нет

    Аудио #2
    Идентификатор : 3
    Формат : AC-3
    Формат/Информация : Audio Coding 3
    Расширение режима : CM (complete main)
    Параметр Endianness формата : Big
    Идентификатор кодека : A_AC3
    Продолжительность : 1 ч. 47 м.
    Вид битрейта : Постоянный
    Битрейт : 640 Кбит/сек
    Каналы : 6 каналов
    Расположение каналов : Front: L C R, Side: L R, LFE
    Частота : 48,0 КГц
    Битовая глубина : 16 бит
    Метод сжатия : С потерями
    Размер потока : 492 Мбайт (6%)
    Язык : English
    Default : Нет
    Forced : Нет

    Текст #1
    Идентификатор : 4
    Формат : UTF-8
    Идентификатор кодека : S_TEXT/UTF8
    Идентификатор кодека/Информация : UTF-8 Plain Text
    Язык : Russian
    Default : Да
    Forced : Нет

    Текст #2
    Идентификатор : 5
    Формат : UTF-8
    Идентификатор кодека : S_TEXT/UTF8
    Идентификатор кодека/Информация : UTF-8 Plain Text
    Язык : English
    Default : Нет
    Forced : Нет

    Меню
    00:00:00.000 : en:00:00:00.000
    00:07:39.918 : en:00:07:39.918
    00:12:13.066 : en:00:12:13.066
    00:18:06.544 : en:00:18:06.544
    00:21:39.340 : en:00:21:39.340
    00:28:38.508 : en:00:28:38.508
    00:32:09.427 : en:00:32:09.427
    00:37:10.019 : en:00:37:10.019
    00:44:16.612 : en:00:44:16.612
    00:47:35.477 : en:00:47:35.477
    00:53:55.691 : en:00:53:55.691
    01:01:18.633 : en:01:01:18.633
    01:09:47.308 : en:01:09:47.308
    01:14:37.431 : en:01:14:37.431
    01:21:28.508 : en:01:21:28.508
    01:24:37.739 : en:01:24:37.739
    01:30:41.394 : en:01:30:41.394
    01:33:44.994 : en:01:33:44.994
    01:37:31.637 : en:01:37:31.637
    01:41:11.232 : en:01:41:11.232

    Скриншоты:


    Релиз от:
    Размер: 8.54 GB (9164484622 Bytes)
    загрузка...
    Рейтинг →
     (голосов: 1, оценка 3/5, голосовать можно 1 раз )

    Другие торренты по теме:

  • Железный кулак / Человек с железными кулаками / The Man with the Iron Fists (2012) BDRip 1080p от Youtracker | Лицензия |Театральная версия
  • Железный кулак 2 / The Man with the Iron Fists 2 (2015) HDRip | Лицензия
  • Железный кулак 2 / The Man with the Iron Fists 2 (2015) ВDRip 1080р | D | Лицензия
  • Железный кулак 2 / The Man with the Iron Fists 2 (2015) HDRip-AVC от ExKinoRay | D, L2 | Лицензия
  • Железный кулак 2 / The Man with the Iron Fists 2 (2015) ВDRip 720p | D | Лицензия
  • Железный Кулак 2 / The Man with the Iron Fists 2 (2015) BDRip 720p | Дополнительные материалы
  • Железный кулак / Iron Fist (2017) WEBRip 720p | Sunshine Studio
  • Железный кулак / Iron Fist (2017) WEBRip 720p от qqss44 | NewStudio


    • Комментарии (0):

      Информация

      Информация

        Посетители, находящиеся в группе Гости, не могут оставлять комментарии в данной новости.

        ↓ Меню



        ↓ Опрос

        А Вы добавили сайт в закладки?
        Да
        Не


        Top 10 за месяц (Фильмы)