.
Авторизация | Регистрация
Хочешь лучшие торренты? Добавь свой email!
Добавить
» » Франкенштейн / Франкенштейн Мэри Шелли / Frankenstein (1994) DVD9 от NovaLan скачать торрент бесплатно




    Франкенштейн / Франкенштейн Мэри Шелли / Frankenstein (1994) DVD9 от NovaLan скачать торрент бесплатно

    Опубликовал: Админ | Дата: 27-02-2015, 11:09 | Просмотров: 564



    Франкенштейн / Франкенштейн Мэри Шелли / Frankenstein (1994) DVD9 от NovaLan

    Название: Франкенштейн / Франкенштейн Мэри Шелли
    Оригинальное название: Frankenstein
    Год выхода: 1994
    Жанр: Ужасы, фантастика, драма, мелодрама
    Режиссер: Кеннет Брана
    В ролях: Роберт Де Ниро, Кеннет Брана, Том Халс, Хелена Бонем Картер, Эйдан Куинн, Иэн Холм, Ричард Брирс, Джон Клиз, Роберт Харди, Шери Лунги, Селия Имри, Джерард Хоран, Марк Хэдфилд, Джоэнна Рот, Джозеф Инглэнд, Альфред Белл, Ричард Клиффорд, Джордж Эспри, Хью Бонневилль, Райан Смит, Рори Дженнингс, Ханна Тэйлор-Гордон, Сьюзэн Филд
    О фильме: Этот фильм - экранизация знаменитого готического романа Мэри Шелли о чудовище, созданном гениальным доктором Франкенштейном, признана критиками самой страшной из всех киноверсий книги. Продюсер фильма Френсис Коппола и режиссер Кеннет Брана, признанные мастера жанра создали по-настоящему гипнотическое зрелище о похождениях ужасного монстра, в роли которого выступил Роберт Де Ниро, еще раз продемонстрировавший свой уникальный дар - завораживать зрителей и заставлять трепетать от страха их сердца.


    Страна: США, Япония, American Zoetrope, IndieProd Company Productions, Japan Satellite Broadcasting Inc. (JBS), TriStar Pictures
    Продолжительность: 01:58:15
    Перевод: Дублированный / Профессиональный многоголосый

    Кодек: MPEG-2
    Качество: DVD-9
    Видео: PAL 16:9 (720x576) VBR
    Звук: Русский, английский (Dolby AC3, 6 ch), русский (Dolby AC3, 2 ch)
    Субтитры: Русские, английские

    Релиз группы NovaLan
    Производство: Blu-Ray Remux DVD-9
    Автор релиза Sergei7721




    DVDInfo

    Title:
    Size: 7.79 Gb ( 8 167 552 KBytes ) - DVD-9
    Enabled regions: 1, 2, 3, 4, 5, 6, 7, 8

    VTS_01 :
    Play Length: 01:58:15
    Video: PAL 16:9 (720x576) VBR, Auto PanScan
    Audio:
    Russian (Dolby AC3, 2 ch)
    Russian (Dolby AC3, 6 ch)
    English (Dolby AC3, 6 ch)
    Subtitles:
    English
    Russian

    Menu Video:
    PAL 16:9 (720x576) VBR
    Auto PanScan
    Menu Audio:
    Not specified (Dolby AC3, 2 ch)
    Menu Subtitles:
    Not specified
    Menu Russian Language Unit :
    Root Menu
    Subpicture Menu
    Audio Menu
    Chapter (PTT) Menu

    MediaInfo

    Полное имя : D:Frankenstein.1994.DVD9.NovaLanVIDEO_TSVTS_01_1.VOB
    Формат : MPEG-PS
    Размер файла : 1024 Мбайт
    Продолжительность : 15 м.
    Режим общего битрейта : Переменный
    Общий поток : 9328 Кбит/сек

    Видео
    Идентификатор : 224 (0xE0)
    Формат : MPEG Video
    Версия формата : Version 2
    Профиль формата : Main@Main
    Параметр BVOP формата : Да
    Параметр матрицы формата : Выборочная
    Продолжительность : 15 м.
    Вид битрейта : Переменный
    Битрейт : 8054 Кбит/сек
    Максимальный битрейт : 8700 Кбит/сек
    Ширина : 720 пикселей
    Высота : 576 пикселей
    Соотношение сторон : 16:9
    Частота кадров : 25,000 кадров/сек
    Стандарт вещания : PAL
    Цветовое пространство : YUV
    Субдискретизация насыщенности : 4:2:0
    Битовая глубина : 8 бит
    Тип развёртки : Чересстрочная
    Порядок развёртки : Верхнее поле первое
    Метод сжатия : С потерями
    Бит/(Пиксели*Кадры) : 0.777
    Размер потока : 884 Мбайт (86%)

    Аудио #1
    Идентификатор : 189 (0xBD)-128 (0x80)
    Формат : AC-3
    Формат/Информация : Audio Coding 3
    Расширение режима : CM (complete main)
    Параметр Endianness формата : Big
    Режим смешивания : DVD-Video
    Продолжительность : 15 м.
    Вид битрейта : Постоянный
    Битрейт : 192 Кбит/сек
    Каналы : 2 канала
    Расположение каналов : Front: L R
    Частота : 48,0 КГц
    Битовая глубина : 16 бит
    Метод сжатия : С потерями
    Размер потока : 21,1 Мбайт (2%)

    Аудио #2
    Идентификатор : 189 (0xBD)-129 (0x81)
    Формат : AC-3
    Формат/Информация : Audio Coding 3
    Расширение режима : CM (complete main)
    Параметр Endianness формата : Big
    Режим смешивания : DVD-Video
    Продолжительность : 15 м.
    Вид битрейта : Постоянный
    Битрейт : 448 Кбит/сек
    Каналы : 6 каналов
    Расположение каналов : Front: L C R, Side: L R, LFE
    Частота : 48,0 КГц
    Битовая глубина : 16 бит
    Метод сжатия : С потерями
    Размер потока : 49,2 Мбайт (5%)

    Аудио #3
    Идентификатор : 189 (0xBD)-130 (0x82)
    Формат : AC-3
    Формат/Информация : Audio Coding 3
    Расширение режима : CM (complete main)
    Параметр Endianness формата : Big
    Режим смешивания : DVD-Video
    Продолжительность : 15 м.
    Вид битрейта : Постоянный
    Битрейт : 448 Кбит/сек
    Каналы : 6 каналов
    Расположение каналов : Front: L C R, Side: L R, LFE
    Частота : 48,0 КГц
    Битовая глубина : 16 бит
    Метод сжатия : С потерями
    Размер потока : 49,2 Мбайт (5%)

    Скриншот меню




    Релиз от:


    Залил: Sergei7721
    Размер: 7.79 GB (8363573248 Bytes)
    загрузка...
    Рейтинг →
     (голосов: 1, оценка 5/5, голосовать можно 1 раз )

    Другие торренты по теме:

  • Франкенштейн / Франкенштейн Мэри Шелли / Frankenstein / Mary Shelleys Frankenstein (1994) BDRip 1080p
  • Мэри Шелли - Франкенштейн, или Современный Прометей (2010) MP3
  • Я, Франкенштейн / I, Frankenstein (2014) HD 1080p | L1 | Трейлер скачать через торрент бесплатно
  • Я, Франкенштейн (2014) скачать через торрент бесплатно
  • Франкенштейн / Frankenstein (2011) CAMRip | Sub
  • OST - I, Frankenstein / Я, Франкенштейн (2014) MP3 скачать через торрент бесплатно
  • Я, Франкенштейн / I, Frankenstein (2014) CAMRip скачать через торрент бесплатно
  • Я, Франкенштейн I, Frankenstein (2013) MP3


    • Комментарии (0):

      Информация

      Информация

        Посетители, находящиеся в группе Гости, не могут оставлять комментарии в данной новости.

        ↓ Меню



        ↓ Опрос

        А Вы добавили сайт в закладки?
        Да
        Не


        Top 10 за месяц (Фильмы)