.
Авторизация | Регистрация
Хочешь лучшие торренты? Добавь свой email!
Добавить
» » Смертельное оружие 2 / Lethal Weapon 2 (1989) DVDRip-AVC | А | Режиссерская версия / Directors Cut скачать торрент бесплатно




    Смертельное оружие 2 / Lethal Weapon 2 (1989) DVDRip-AVC | А | Режиссерская версия / Directors Cut скачать торрент бесплатно

    Опубликовал: Админ | Дата: 27-02-2015, 11:09 | Просмотров: 418



    Страна: США
    Жанр: боевик, триллер
    Год выпуска: 1989
    Продолжительность: 01:58:00
    Перевод: Авторский одноголосый (Михаил Яроцкий) Ненормативная лексика
    Cубтитры: нет
    Оригинальная аудиодорожка: английский

    Режиссер: Ричард Доннер

    В ролях: Мэл Гибсон, Дэнни Гловер, Джо Пеши, Джосс Экленд, Деррик О’Коннор, Пэтси Кензит, Дарлен Лав, Трэйси Вульф, Стив Кэхэн, Марк Ролстон

    Описание:
    Мартин и его напарник Роджер напали на след могущественной наркомафии, которой заправляли выходцы из Южно-Африканского Союза. Полиции удалось арестовать одного из мошенников, помогавших мафиозо отмывать их грязные деньги.
    Этого важного свидетеля поручили охранять Мартину и Роджеру. Сами бандиты были неуязвимы, так как пользовались дипломатической неприкосновенностью…




    Качество: DVDRip-AVC
    Контейнер: MKV
    Видео: 720x362@864x362 (2,40:1), x256, 23.976 fps, ~1744 kbps avg, 0.279 bit/pixel
    Аудио 1: 48 kHz, AC3 Dolby Digital, 3/2 (L,C,R,l,r) LFE ch, ~448.00 kbps avg (VO Михаил Яроцкий)
    Аудио 2: 48 kHz, AC3 Dolby Digital, 3/2 (L,C,R,l,r) LFE ch, ~448.00 kbps avg (Original english)

    MediaInfo
    Format : Matroska
    Format version : Version 4 / Version 2
    File size : 2.18 GiB
    Duration : 1h 58mn
    Overall bit rate mode : Variable
    Overall bit rate : 2 641 Kbps
    Encoded date : UTC 2013-07-26 11:24:12
    Writing application : mkvmerge v6.0.0 (;Coming Up For Air;) built on Jan 20 2013 09:52:00
    Writing library : libebml v1.3.0 libmatroska v1.4.0
    Video #1
    ID : 1
    Format : AVC
    Format/Info : Advanced Video Codec
    Format profile : High@L4.1
    Format settings, CABAC : Yes
    Format settings, ReFrames : 16 frames
    Codec ID : V_MPEG4/ISO/AVC
    Duration : 1h 58mn
    Bit rate mode : Variable
    Bit rate : 1 744 Kbps
    Maximum bit rate : 50.0 Mbps
    Width : 720 pixels
    Height : 362 pixels
    Display aspect ratio : 2.40:1
    Frame rate mode : Constant
    Frame rate : 23.976 fps
    Color space : YUV
    Chroma subsampling : 4:2:0
    Bit depth : 8 bits
    Scan type : Progressive
    Bits/(Pixel*Frame) : 0.279
    Stream size : 1.40 GiB (64%)
    Title : рип от Переводмана
    Writing library : x264 core 133 r2334 a3ac64b
    Encoding settings : cabac=1 / ref=16 / deblock=1:-3:-3 / analyse=0x3:0x133 / me=umh / subme=10 / psy=1 / psy_rd=1.00:0.00 / mixed_ref=1 / me_range=32 / chroma_me=1 / trellis=2 / 8x8dct=1 / cqm=0 / deadzone=21,11 / fast_pskip=0 / chroma_qp_offset=-2 / threads=6 / lookahead_threads=1 / sliced_threads=0 / nr=0 / decimate=0 / interlaced=0 / bluray_compat=0 / constrained_intra=0 / bframes=16 / b_pyramid=2 / b_adapt=2 / b_bias=0 / direct=3 / weightb=1 / open_gop=0 / weightp=2 / keyint=240 / keyint_min=23 / scenecut=40 / intra_refresh=0 / rc_lookahead=60 / rc=2pass / mbtree=1 / bitrate=1744 / ratetol=1.0 / qcomp=0.60 / qpmin=10 / qpmax=51 / qpstep=4 / cplxblur=20.0 / qblur=0.5 / vbv_maxrate=50000 / vbv_bufsize=62500 / nal_hrd=vbr / ip_ratio=1.40 / aq=1:1.00
    Language : English
    Default : Yes
    Forced : No
    Audio #2
    ID : 2
    Format : AC-3
    Format/Info : Audio Coding 3
    Mode extension : CM (complete main)
    Format settings, Endianness : Big
    Codec ID : A_AC3
    Duration : 1h 58mn
    Bit rate mode : Constant
    Bit rate : 448 Kbps
    Channel(s) : 6 channels
    Channel positions : Front: L C R, Side: L R, LFE
    Sampling rate : 48.0 KHz
    Bit depth : 16 bits
    Compression mode : Lossy
    Stream size : 378 MiB (17%)
    Title : AVO kyberpunk
    Language : Russian
    Default : Yes
    Forced : No
    Audio #3
    ID : 3
    Format : AC-3
    Format/Info : Audio Coding 3
    Mode extension : C (commentary)
    Format settings, Endianness : Big
    Codec ID : A_AC3
    Duration : 1h 58mn
    Bit rate mode : Constant
    Bit rate : 448 Kbps
    Channel(s) : 6 channels
    Channel positions : Front: L C R, Side: L R, LFE
    Sampling rate : 48.0 KHz
    Bit depth : 16 bits
    Compression mode : Lossy
    Stream size : 378 MiB (17%)
    Title : Original
    Language : English
    Default : No
    Forced : No
    Скриншоты

    Размер: 2.18 GB (2337793622 Bytes)
    загрузка...
    Рейтинг →
     (голосов: 1, оценка 5/5, голосовать можно 1 раз )

    Другие торренты по теме:

  • Смертельное оружие: Квадрология / Lethal Weapon: Quadrilogy (1987-1998) BDRip 1080p от R.G. GoldenShara
  • Смертельное оружие / Lethal Weapon (1987) DVDRip-AVC | А | Режиссерская версия / Directors Cut
  • National Geographic. Скорость - смертельное оружие / Killer Instincts: Speed (2003) DVDRip-AVC от Тorrent-Хzona
  • Смертельное оружие / Lethal Weapon (1987) BDRip 1080p от New-Team скачать через торрент бесплатно
  • Смертельное оружие 2 / Lethal Weapon 2 (1989) BDRip 1080p от New-Team скачать через торрент бесплатно
  • Смертельное оружие 3 / Lethal Weapon 3 (1992) BDRip 1080p от New-Team
  • Смертельное оружие 4 / Lethal Weapon 4 (1998) BDRip 1080p от New-Team скачать через торрент бесплатно
  • Смертельное оружие: Квадрология / Lethal Weapon: Quadrology (1987-1998) BDRip-AVC от ExKinoRay | А скачать через торрент бесплатно


    • Комментарии (0):

      Информация

      Информация

        Посетители, находящиеся в группе Гости, не могут оставлять комментарии в данной новости.

        ↓ Меню



        ↓ Опрос

        А Вы добавили сайт в закладки?
        Да
        Не


        Top 10 за месяц (Фильмы)