.
Авторизация | Регистрация
Хочешь лучшие торренты? Добавь свой email!
Добавить
» » Пассажир 57 / Passenger 57 (1992) HDRip от Leon-masl | D скачать торрент бесплатно




    Пассажир 57 / Passenger 57 (1992) HDRip от Leon-masl | D скачать торрент бесплатно

    Опубликовал: Админ | Дата: 27-02-2015, 11:09 | Просмотров: 310



    Информация о фильме
    Название: Пассажир 57
    Оригинальное название: Passenger 57
    Год выхода: 1992
    Жанр: Боевик, триллер, криминал
    Режиссер: Кевин Хукс / Kevin Hooks
    В ролях: Уэсли Снайпс, Брюс Пэйн, Том Сайзмор, Алекс Дэтчер, Брюс Гринвуд, Роберт Хукс, Элизабет Херли, Майкл Хорс, Марк Маколей, Эрни Лайвли

    О фильме:
    Чарльз Рейн — безжалостный и неистовый убийца-террорист. Джон Каттер — хладнокровный полицейский из службы безопасности авиакомпании. Схватка хорошего и плохого парней начинается в воздухе, затем продолжится на земле…



    Страна: США
    Продолжительность: 01:23:43
    Перевод: Профессиональный (дублированный) Мост Видео

    Файл
    Кодек: Xvid
    Качество: HDRip с |BDRip 1080p|
    Видео: 720x304, 23.976 fps, ~2103 kbps
    Звук: AC3, 6 ch, 384 kbps, 48.0 Khz
    MI
    Общее
    Полное имя : Passenger.57.1992.HDRip.avi
    Формат : AVI
    Формат/Информация : Audio Video Interleave
    Размер файла : 1,46 Гбайт
    Продолжительность : 1 ч. 23 м.
    Общий поток : 2496 Кбит/сек
    Программа кодирования : VirtualDubMod 1.5.10.2 (build 2542/release)
    Библиотека кодирования : VirtualDubMod build 2542/release

    Видео
    Идентификатор : 0
    Формат : MPEG-4 Visual
    Профиль формата : Advanced Simple@L5
    Параметр BVOP формата : 2
    Параметр QPel формата : Нет
    Параметр GMC формата : Без точки перехода
    Параметр матрицы формата : Выборочная
    Идентификатор кодека : XVID
    Идентификатор кодека/Подсказка : XviD
    Продолжительность : 1 ч. 23 м.
    Битрейт : 2103 Кбит/сек
    Ширина : 720 пикс.
    Высота : 304 пикс.
    Соотношение сторон : 2,35:1
    Частота кадров : 23,976 кадр/сек
    Цветовое пространство : YUV
    Подвыборка цветности : 4:2:0
    Битовая глубина : 8 бит
    Тип развёртки : Прогрессивная
    Метод сжатия : С потерями
    Бит/(Пиксели*Кадры) : 0.401
    Размер потока : 1,23 Гбайт (84%)
    Библиотека кодирования : XviD 73

    Аудио
    Идентификатор : 1
    Формат : AC-3
    Формат/Информация : Audio Coding 3
    Расширение режима : CM (complete main)
    Идентификатор кодека : 2000
    Продолжительность : 1 ч. 23 м.
    Вид битрейта : Постоянный
    Битрейт : 384 Кбит/сек
    Канал(ы) : 6 канала(ов)
    Расположение каналов : Front: L C R, Side: L R, LFE
    Частота : 48,0 КГц
    Битовая глубина : 16 бит
    Метод сжатия : С потерями
    Задержка видео : 4 с. 568 мс.
    Размер потока : 230 Мбайт (15%)
    Выравнивание : Разделение по промежуткам
    Продолжительность промежутка : 42 мс. (1,00 видеокадр)
    Время предзагрузки промежутка : 500 ms
    Скриншоты


    Релиз от: Leon-masl
    Залил: leon-masl
    Размер: 1.46 GB (1567436800 Bytes)
    загрузка...
    Рейтинг →
     (голосов: 1, оценка 5/5, голосовать можно 1 раз )

    Другие торренты по теме:

  • Пассажир 57 / Passenger 57 (1992) HDRip от Scarabey | D скачать через торрент бесплатно
  • Пассажир 57 / Passenger 57 / 1992 / ДБ, ПМ, ПД, АП (Гаврилов, Горчаков), СТ / BDRip (720p)
  • Пассажир 57 / Passenger 57 / 1992 / ДБ / HDRip


    • Комментарии (0):

      Информация

      Информация

        Посетители, находящиеся в группе Гости, не могут оставлять комментарии в данной новости.

        ↓ Меню



        ↓ Опрос

        А Вы добавили сайт в закладки?
        Да
        Не


        Top 10 за месяц (Фильмы)