.
Авторизация | Регистрация
Хочешь лучшие торренты? Добавь свой email!
Добавить
» » Мой любимый марсианин / My Favorite Martian (1999) WEB-DLRip скачать торрент бесплатно




    Мой любимый марсианин / My Favorite Martian (1999) WEB-DLRip скачать торрент бесплатно

    Опубликовал: Админ | Дата: 27-02-2015, 11:09 | Просмотров: 485



    Информация о фильме
    Название: Мой любимый марсианин
    Оригинальное название: My Favorite Martian
    Год выхода: 1999
    Жанр: фантастика, комедия, семейный
    Режиссер: Дональд Питри
    В ролях: Кристофер Ллойд, Джефф Дэниелс, Элизабет Херли, Дэрил Ханна, Уоллес Шоун, Кристин Эберсоул, Майкл Лернер, Рей Уолстон, Шелли Мэлил, Джереми Хотц

    О фильме:
    Веселые приключения начались в тот день, когда честолюбивый репортер Тим О`Хара наткнулся на марсианина, который только что совершил вынужденную посадку на землю. Поняв, что в его руки попал самый сенсационный материал за всю историю человечества, Тим замышляет разоблачить марсианина, принявшего человеческий облик под именем дяди Мартина.

    Однако невероятные проделки дядюшки неизменно срывают планы Тима, и тогда он принимает решение помочь изобретательному инопланетянину вернуться домой. Но сделать это не так - то просто: электронный ускоритель звездолета сломан, а власти вот - вот схватят Мартина. Успеет ли корабль взлететь вовремя?



    Страна: США
    Продолжительность: 01:33:52
    Перевод: Профессиональный (полное дублирование)|Дубляж, iTunes Russia|
    Автор рипа: Odessit


    Файл
    Кодек: XviD build 73
    Качество: WEB-DLRip (WEB-DL (720p)
    Видео: 720x400 (1.80:1), 23.976 fps, XviD build 73 ~1819 kbps avg, 0.26 bit/pixel
    Звук: 48 kHz, AC3 Dolby Digital, 3/2 (L,C,R,l,r) LFE ch, ~384 kbps

    Скачать: Сэмпл
    MI
    Формат : AVI
    Формат/Информация : Audio Video Interleave
    Размер файла : 1,45 Гбайт
    Продолжительность : 1 ч. 33 м.
    Общий поток : 2212 Кбит/сек
    Название фильма : My.Favorite.Martian.1999.WEB-DL.Rp
    Режиссёр : Odessit
    Программа кодирования : VirtualDubMod 1.5.10.3 (build 2550/release)
    Библиотека кодирования : VirtualDubMod build 2550/release

    Видео
    Идентификатор : 0
    Формат : MPEG-4 Visual
    Профиль формата : Advanced Simple@L5
    Параметр BVOP формата : 1
    Параметр QPel формата : Нет
    Параметр GMC формата : Без точки перехода
    Параметр матрицы формата : Выборочная
    Идентификатор кодека : XVID
    Идентификатор кодека/Подсказка : XviD
    Продолжительность : 1 ч. 33 м.
    Битрейт : 1820 Кбит/сек
    Ширина : 720 пикселей
    Высота : 400 пикселей
    Соотношение сторон : 16:9
    Частота кадров : 23,976 кадра/сек
    Цветовое пространство : YUV
    Субдискретизация насыщенности : 4:2:0
    Битовая глубина : 8 бит
    Тип развёртки : Прогрессивная
    Метод сжатия : С потерями
    Бит/(Пиксели*Кадры) : 0.264
    Размер потока : 1,19 Гбайт (82%)
    Библиотека кодирования : XviD 73

    Аудио
    Идентификатор : 1
    Формат : AC-3
    Формат/Информация : Audio Coding 3
    Расширение режима : CM (complete main)
    Параметр Endianness формата : Big
    Идентификатор кодека : 2000
    Продолжительность : 1 ч. 33 м.
    Вид битрейта : Постоянный
    Битрейт : 384 Кбит/сек
    Каналы : 6 каналов
    Расположение каналов : Front: L C R, Side: L R, LFE
    Частота : 48,0 КГц
    Битовая глубина : 16 бит
    Метод сжатия : С потерями
    Размер потока : 257 Мбайт (17%)
    Выравнивание : Разделение по промежуткам
    Продолжительность промежутка : 42 мс. (1,00 видеокадр)
    Время предзагрузки промежутка : 500 мс.

    Сравнения с DVDRip
    Скриншоты

    Размер: 1.45 GB (1557454848 Bytes)
    загрузка...
    Рейтинг →
     (голосов: 1, оценка 4/5, голосовать можно 1 раз )

    Другие торренты по теме:

  • Мой любимый дом (2013) PDF
  • Мой любимый марсианин / My Favorite Martian (1999) WEB-DL (720p) от HDClub | D
  • Мой любимый папа (2014) SATRip скачать через торрент бесплатно
  • Мой любимый папа ! (2014) SATRip скачать через торрент бесплатно
  • Мой любимый марсианин / My Favorite Martian (1999) HDRip от Scarabey | D
  • Мой любимый телохранитель / My Beloved Bodyguard (2016) WEBRip-AVC от BTT-TEAM | L1
  • VA - Сборник - Мой Любимый Русский Рок (2016) MP3
  • Мой любимый клоун / 1986 / РУ / DVB


    • Комментарии (0):

      Информация

      Информация

        Посетители, находящиеся в группе Гости, не могут оставлять комментарии в данной новости.

        ↓ Меню



        ↓ Опрос

        А Вы добавили сайт в закладки?
        Да
        Не


        Top 10 за месяц (Фильмы)