.
Авторизация | Регистрация
Хочешь лучшие торренты? Добавь свой email!
Добавить
» » По ту сторону закона / Dead Heat (2002) DVD-5 скачать торрент бесплатно




    По ту сторону закона / Dead Heat (2002) DVD-5 скачать торрент бесплатно

    Опубликовал: Админ | Дата: 27-02-2015, 11:09 | Просмотров: 381



    Информация о фильме
    Название: По ту сторону закона
    Оригинальное название: Dead Heat
    Год выхода: 2002
    Жанр: Боевик, комедия, драма, криминал
    Режиссер: Марк Мэлоун
    В ролях: Кифер Сазерленд, Энтони Ла Палья, Крэйг Верони, Майкл Беняер, Рада Митчелл, Дэниэл Бензали, Кей Панабэйкер, Чарльз Мартин Смит, Лотер Блюто, Денис Арндт

    О фильме: Медицинская комиссия вынуждает крутого бостонского полицейского уйти на пенсию. Разочаровавшийся в жизни и близкий к самоубийству, он принимает предложение своего брата, сулящее выгодную сделку и легкие барыши. Однако неожиданно для себя братья переходят дорогу боссу местной мафии, и с этого момента деньги в их жизни отступают на второй план. Гораздо важнее теперь другое — просто остаться в живых.



    Страна: Канада, Германия
    Студия: Cinerenta Medienbeteiligungs KG, Lions Gate Films, Cinelaw
    Продолжительность: 01:33:45
    Перевод: Профессиональный двухголосый
    Субтитры: Русские


    Файл
    Кодек: MPEG-2
    Качество: DVD-5
    Видео: PAL 16:9 (720x576) VBR
    Звук: Русский, английский (Dolby AC3, 6 ch)


    Меню


    DVDInfo


    Title: Локальный диск
    Size: 4.07 Gb ( 4 263 452 KBytes ) - DVD-5
    Enabled regions: 1, 2, 3, 4, 5, 6

    VTS_01 :
    Play Length: 01:33:45
    Video: PAL 16:9 (720x576) VBR, Auto PanScan
    Audio:
    Russian (Dolby AC3, 6 ch)
    English (Dolby AC3, 6 ch)
    Subtitles:
    Russian

    VTS_02 :
    Play Length: 00:01:00 00:04:09 00:02:10 00:01:49
    Video: PAL 4:3 (720x576) VBR
    Audio:
    Russian (Dolby AC3, 6 ch)
    English (Dolby AC3, 6 ch)
    Subtitles:
    Russian

    Menu Video:
    PAL 4:3 (720x576) VBR
    Menu Subtitles:
    Not specified
    Menu English Language Unit :
    Root Menu






    MediaInfo
    Общее
    Полное имя : D:1АААПо ту сторону законаVIDEO_TSVTS_01_1.VOB
    Формат : MPEG-PS
    Размер файла : 1024 Мбайт
    Продолжительность : 26 м.
    Режим общего битрейта : Переменный
    Общий поток : 5331 Кбит/сек

    Видео
    Идентификатор : 224 (0xE0)
    Формат : MPEG Video
    Версия формата : Version 2
    Профиль формата : Main@Main
    Параметр BVOP формата : Да
    Параметр матрицы формата : По умолчанию
    Параметр GOP формата : Variable
    Продолжительность : 26 м.
    Вид битрейта : Переменный
    Битрейт : 4457 Кбит/сек
    Максимальный битрейт : 8300 Кбит/сек
    Ширина : 720 пикселей
    Высота : 576 пикселей
    Соотношение сторон : 16:9
    Частота кадров : 25,000 кадров/сек
    Стандарт вещания : PAL
    Цветовое пространство : YUV
    Субдискретизация насыщенности : 4:2:0
    Битовая глубина : 8 бит
    Тип развёртки : Чересстрочная
    Порядок развёртки : Верхнее поле первое
    Метод сжатия : С потерями
    Бит/(Пиксели*Кадры) : 0.430
    TimeCode_FirstFrame : 00:59:59:00
    TimeCode_Source : Group of pictures t_head
    Размер потока : 856 Мбайт (84%)
    Основные цвета : BT.601 PAL
    Характеристики трансфера : BT.470 System B, BT.470 System G
    Коэффициенты матрицы : BT.601

    Аудио #1
    Идентификатор : 189 (0xBD)-128 (0x80)
    Формат : AC-3
    Формат/Информация : Audio Coding 3
    Расширение режима : CM (complete main)
    Параметр Endianness формата : Big
    Режим смешивания : DVD-Video
    Продолжительность : 26 м.
    Вид битрейта : Постоянный
    Битрейт : 384 Кбит/сек
    Каналы : 6 каналов
    Расположение каналов : Front: L C R, Side: L R, LFE
    Частота : 48,0 КГц
    Битовая глубина : 16 бит
    Метод сжатия : С потерями
    Размер потока : 73,7 Мбайт (7%)

    Аудио #2
    Идентификатор : 189 (0xBD)-129 (0x81)
    Формат : AC-3
    Формат/Информация : Audio Coding 3
    Расширение режима : CM (complete main)
    Параметр Endianness формата : Big
    Режим смешивания : DVD-Video
    Продолжительность : 26 м.
    Вид битрейта : Постоянный
    Битрейт : 384 Кбит/сек
    Каналы : 6 каналов
    Расположение каналов : Front: L C R, Side: L R, LFE
    Частота : 48,0 КГц
    Битовая глубина : 16 бит
    Метод сжатия : С потерями
    Размер потока : 73,7 Мбайт (7%)

    Текст #1
    Идентификатор : 189 (0xBD)-33 (0x21)
    Формат : RLE
    Формат/Информация : Run-length encoding
    Режим смешивания : DVD-Video

    Текст #2
    Идентификатор : 189 (0xBD)-34 (0x22)
    Формат : RLE
    Формат/Информация : Run-length encoding
    Режим смешивания : DVD-Video

    Меню




    Скриншоты

    Залил: YArl
    Размер: 4.07 GB (4365774848 Bytes)
    загрузка...
    Рейтинг →
     (голосов: 1, оценка 3/5, голосовать можно 1 раз )

    Другие торренты по теме:

  • Александр Бушков - Сварог 5. По ту сторону льда (2013) MP3
  • По ту сторону убийства / Murder on the Home Front (2013) HDTVRip 720p | L1
  • По ту сторону кровати / De lautre cote du lit (2008) BDRemux 1080p
  • Разумное сомнение / По ту сторону разумного сомнения / Beyond a Reasonable Doubt (2009) НDRip от Scarabey
  • По ту сторону чёрной радуги / Beyond the Black Rainbow (2010) BDRip-AVC от HELLYWOOD | P2 скачать бесплатно через торрент
  • Страна по ту сторону заката / The Land Beyond the Sunset (1912) DVDRip | Sub
  • По ту сторону кровати / De lautre cote du lit (2008) BDRip 1080p скачать через торрент бесплатно
  • По ту сторону кровати / De lautre cote du lit (2008) BDRip 720p от leonardo 59 Scarabey скачать через торрент бесплатно


    • Комментарии (0):

      Информация

      Информация

        Посетители, находящиеся в группе Гости, не могут оставлять комментарии в данной новости.

        ↓ Меню



        ↓ Опрос

        А Вы добавили сайт в закладки?
        Да
        Не


        Top 10 за месяц (Фильмы)