.
Авторизация | Регистрация
Хочешь лучшие торренты? Добавь свой email!
Добавить
» » Безумный Макс: Трилогия / Mad Max (1979-1985) BDRip скачать торрент бесплатно




    Безумный Макс: Трилогия / Mad Max (1979-1985) BDRip скачать торрент бесплатно

    Опубликовал: Админ | Дата: 27-02-2015, 11:09 | Просмотров: 677



    Название: Безумный Макс
    Оригинальное название: Mad Max
    Год выпуска: 1979-1985
    Жанр: Боевик, приключения, фантастика
    Режиссер: Джордж Миллер, Джордж Огилви
    В ролях: Мэл Гибсон, Джоэнн Сэмюэл, Хью Кияс-Бёрн, Стив Бисли, Тим Барнс, Роджер Уорд, Дэвид Камерон, Брюс Спенс, Майкл Престон, Макс Фиппс, Вернон Уэллс, Кьелль Нилссон, Эмиль Минти, Вирджиния Хей, Уильям Заппа, Арки Уайтели, Тина Тёрнер, Брюс Спенс, Адам Кокберн, Фрэнк Тринг, Анджело Росситто, Пол Ларссон, Роберт Грубб, Джордж Спартелс

    Описание:
    Безумный Макс: В недалёком будущем, после крупной катастрофы, поразившей нашу урбанистическую цивилизацию, вся жизнь сосредоточилась вдоль бесчисленных магистралей…
    Дорога стала способом существования. И дала многим возможность проявлять свои самые жестокие инстинкты. Банда байкеров на мощных мотоциклах, желая рассчитаться за своего убитого товарища, преследует молодого полицейского Макса. В яростной схватке убит другой полицейский, Гус, подобная участь может ждать Макса и его семью.
    Ему предстоит самая главная и сложная задача — сохранить жену, сына и выжить самому. В роли Макса — Мел Гибсон, тогда ещё мало известный широкой публике.
    Безумный Макс: Воин Дороги: Катастрофа пострашнее ядерной войны постигла нашу цивилизацию. Страшный энергетический кризис парализовал города, пути сообщения — одним словом, все. За топливо теперь дерутся любыми средствами. Потому, что там, где бензин, — там жизнь…
    Одинокий водитель Макс как раз и бороздит пустоши далекой Австралии в поисках горючего. Повсюду брошенные жилища, машины, разный скарб. Наконец Макс находит станцию, превращенную в лагерь со складами горючего.
    Исхудавшие, измученные люди как могут охраняют то, что им принадлежит. И вот, в довершение всех бед, на лагерь нападают враги, свирепые вояки под предводительством некоего Гумундуса, садиста и душегуба. И тогда Макс вступает в схватку…
    Безумный Макс 3: Под куполом грома: В городе Батертауне правит коварная властительница Энтити. Для укрепления своей власти она пытается использовать Макса, непревзойденного мастера дорожных схваток. Но теперь завораживающую череду автомобильных разборок под испепеляющим солнцем начинают сменять невероятные рукопашные бои.

    Страна: Австралия, США
    Продолжительность: 3 x 01:37:00
    Перевод: Дублированный, профессиональный многоголосый, авторский

    Качество: BDRip
    Видео: XviD, ~ 1920 Кбит/с, 720х304
    Аудио rus: Подробнее в вкладке ниже (Звуковые переводы фильмов)

    Семпл

    Лицензия
    http://www.amazon.com/Trilogy-Warrior-Beyond-Thunderdome-Blu-ray/dp/B00BLRXDTQ/ref=sr_1_1?s=movies-tvie=UTF8qid=1371373037sr=1-1keywords=Mad Max


    Звуковые переводы фильмов:

    Безумный Макс / Mad Max / 1979
    Русский (AC3, 6 ch, 448 Кбит/с) - Дублированный
    Русский (AC3, 6 ch, 448 Кбит/с) - Профессиональный многоголосый (Киномания)
    Отдельно:
    Русский (AC3, 2 ch, 192 Кбит/с) - Профессиональный многоголосый (Варус-Видео)
    Русский (AC3, 6 ch, 448 Кбит/с) - Авторский одноголосый (Михалёв)
    Русский (AC3, 6 ch, 448 Кбит/с) - Авторский одноголосый (Володарский)

    Безумный Макс 2: Воин дороги / Mad Max 2: The Road Warrior / 1981
    Русский (AC3, 6 ch, 384 Кбит/с) - Дублированный
    Русский (AC3, 6 ch, 448 Кбит/с) - Профессиональный многоголосый (Киномания)
    Отдельно:
    Русский (AC3, 6 ch, 448 Кбит/с) - Авторский одноголосый (Дмитрий Гоблин Пучков)
    Русский (AC3, 6 ch, 384 Кбит/с) - Авторский одноголосый (Володарский)
    Русский (AC3, 6 ch, 448 Кбит/с) - Авторский одноголосый (Михалев)

    Безумный Макс 3: Под куполом грома / Mad Max Beyond Thunderdome / 1985
    Русский (AC3, 6 ch, 384 Кбит/с) - Дублированный
    Русский (AC3, 6 ch, 448 Кбит/с) - Профессиональный многоголосый (Киномания)
    Отдельно:
    Русский (AC3, 6 ch, 384 Кбит/с) - Авторский одноголосый (Гаврилов)
    Русский (AC3, 6 ch, 384 Кбит/с) - Авторский одноголосый (Живов)


    Инфо
    Полное имя : M:Безумный.Макс.tahiy19791.Безумный Макс.1979.tahiy.avi
    Формат : AVI
    Формат/Информация : Audio Video Interleave
    Размер файла : 1,95 Гбайт
    Продолжительность : 1 ч. 33 м.
    Общий поток : 3001 Кбит/сек
    Название фильма : Безумный Макс.1979.tahiy
    Режиссёр : tahiy
    Программа кодирования : VirtualDubMod 1.5.4.1 (build 2178/release)
    Правообладатель : - = Rip by tahiy = -

    Видео
    Идентификатор : 0
    Формат : MPEG-4 Visual
    Профиль формата : Advanced Simple@L5
    Параметр BVOP формата : 1
    Параметр QPel формата : Нет
    Параметр GMC формата : Без точки перехода
    Параметр матрицы формата : Default (MPEG)
    Идентификатор кодека : XVID
    Идентификатор кодека/Подсказка : XviD
    Продолжительность : 1 ч. 33 м.
    Битрейт : 2091 Кбит/сек
    Ширина : 720 пикселей
    Высота : 304 пикселя
    Соотношение сторон : 2,35:1
    Частота кадров : 23,976 кадра/сек
    Цветовое пространство : YUV
    Субдискретизация насыщенности : 4:2:0
    Битовая глубина : 8 бит
    Тип развёртки : Прогрессивная
    Метод сжатия : С потерями
    Бит/(Пиксели*Кадры) : 0.398
    Размер потока : 1,36 Гбайт (70%)
    Библиотека кодирования : XviD 1.2.1 (UTC 2008-12-04)

    Аудио #1
    Идентификатор : 1
    Формат : AC-3
    Формат/Информация : Audio Coding 3
    Расширение режима : CM (complete main)
    Идентификатор кодека : 2000
    Продолжительность : 1 ч. 33 м.
    Вид битрейта : Постоянный
    Битрейт : 448 Кбит/сек
    Каналы : 6 каналов
    Расположение каналов : Front: L C R, Side: L R, LFE
    Частота : 48,0 КГц
    Битовая глубина : 16 бит
    Метод сжатия : С потерями
    Размер потока : 299 Мбайт (15%)
    Выравнивание : Разделение по промежуткам
    Продолжительность промежутка : 42 мс. (1,00 видеокадр)
    Время предзагрузки промежутка : 500 мс.

    Аудио #2
    Идентификатор : 2
    Формат : AC-3
    Формат/Информация : Audio Coding 3
    Расширение режима : CM (complete main)
    Идентификатор кодека : 2000
    Продолжительность : 1 ч. 33 м.
    Вид битрейта : Постоянный
    Битрейт : 448 Кбит/сек
    Каналы : 6 каналов
    Расположение каналов : Front: L C R, Side: L R, LFE
    Частота : 48,0 КГц
    Битовая глубина : 16 бит
    Метод сжатия : С потерями
    Размер потока : 299 Мбайт (15%)
    Выравнивание : Разделение по промежуткам
    Продолжительность промежутка : 42 мс. (1,00 видеокадр)
    Время предзагрузки промежутка : 500 мс.

    Полное имя : M:Безумный.Макс.tahiy19811.Безумный.Макс.2.Воин дороги.1981.tahiy.avi
    Формат : AVI
    Формат/Информация : Audio Video Interleave
    Размер файла : 1,92 Гбайт
    Продолжительность : 1 ч. 35 м.
    Общий поток : 2874 Кбит/сек
    Название фильма : Безумный.Макс.2.Воин дороги.1981.tahiy
    Режиссёр : tahiy
    Программа кодирования : VirtualDubMod 1.5.4.1 (build 2178/release)
    Правообладатель : - = Rip by tahiy = -

    Видео
    Идентификатор : 0
    Формат : MPEG-4 Visual
    Профиль формата : Advanced Simple@L5
    Параметр BVOP формата : 1
    Параметр QPel формата : Нет
    Параметр GMC формата : Без точки перехода
    Параметр матрицы формата : Default (MPEG)
    Идентификатор кодека : XVID
    Идентификатор кодека/Подсказка : XviD
    Продолжительность : 1 ч. 35 м.
    Битрейт : 2093 Кбит/сек
    Ширина : 720 пикселей
    Высота : 304 пикселя
    Соотношение сторон : 2,35:1
    Частота кадров : 23,976 кадра/сек
    Цветовое пространство : YUV
    Субдискретизация насыщенности : 4:2:0
    Битовая глубина : 8 бит
    Тип развёртки : Прогрессивная
    Метод сжатия : С потерями
    Бит/(Пиксели*Кадры) : 0.399
    Размер потока : 1,40 Гбайт (73%)
    Библиотека кодирования : XviD 1.2.1 (UTC 2008-12-04)

    Аудио #1
    Идентификатор : 1
    Формат : AC-3
    Формат/Информация : Audio Coding 3
    Расширение режима : CM (complete main)
    Идентификатор кодека : 2000
    Продолжительность : 1 ч. 35 м.
    Вид битрейта : Постоянный
    Битрейт : 384 Кбит/сек
    Каналы : 6 каналов
    Расположение каналов : Front: L C R, Side: L R, LFE
    Частота : 48,0 КГц
    Битовая глубина : 16 бит
    Метод сжатия : С потерями
    Размер потока : 262 Мбайт (13%)
    Выравнивание : Разделение по промежуткам
    Продолжительность промежутка : 42 мс. (1,00 видеокадр)
    Время предзагрузки промежутка : 500 мс.

    Аудио #2
    Идентификатор : 2
    Формат : AC-3
    Формат/Информация : Audio Coding 3
    Расширение режима : CM (complete main)
    Идентификатор кодека : 2000
    Продолжительность : 1 ч. 35 м.
    Вид битрейта : Постоянный
    Битрейт : 384 Кбит/сек
    Каналы : 6 каналов
    Расположение каналов : Front: L C R, Side: L R, LFE
    Частота : 48,0 КГц
    Битовая глубина : 16 бит
    Метод сжатия : С потерями
    Размер потока : 262 Мбайт (13%)
    Выравнивание : Разделение по промежуткам
    Продолжительность промежутка : 42 мс. (1,00 видеокадр)
    Время предзагрузки промежутка : 500 мс.

    Полное имя : M:Безумный.Макс.tahiy19851.Безумный.Макс.3.Под.куполом.грома.1985.tahiy.avi
    Формат : AVI
    Формат/Информация : Audio Video Interleave
    Размер файла : 1,92 Гбайт
    Продолжительность : 1 ч. 46 м.
    Общий поток : 2575 Кбит/сек
    Название фильма : Безумный.Макс.3.Под.куполом.грома.1985.tahiy
    Режиссёр : tahiy
    Программа кодирования : VirtualDubMod 1.5.4.1 (build 2178/release)
    Правообладатель : - = Rip by tahiy = -

    Видео
    Идентификатор : 0
    Формат : MPEG-4 Visual
    Профиль формата : Advanced Simple@L5
    Параметр BVOP формата : 1
    Параметр QPel формата : Нет
    Параметр GMC формата : Без точки перехода
    Параметр матрицы формата : Default (MPEG)
    Идентификатор кодека : XVID
    Идентификатор кодека/Подсказка : XviD
    Продолжительность : 1 ч. 46 м.
    Битрейт : 1730 Кбит/сек
    Ширина : 720 пикселей
    Высота : 304 пикселя
    Соотношение сторон : 2,35:1
    Частота кадров : 23,976 кадра/сек
    Цветовое пространство : YUV
    Субдискретизация насыщенности : 4:2:0
    Битовая глубина : 8 бит
    Тип развёртки : Прогрессивная
    Метод сжатия : С потерями
    Бит/(Пиксели*Кадры) : 0.330
    Размер потока : 1,29 Гбайт (67%)
    Библиотека кодирования : XviD 1.2.1 (UTC 2008-12-04)

    Аудио #1
    Идентификатор : 1
    Формат : AC-3
    Формат/Информация : Audio Coding 3
    Расширение режима : CM (complete main)
    Идентификатор кодека : 2000
    Продолжительность : 1 ч. 46 м.
    Вид битрейта : Постоянный
    Битрейт : 384 Кбит/сек
    Каналы : 6 каналов
    Расположение каналов : Front: L C R, Side: L R, LFE
    Частота : 48,0 КГц
    Битовая глубина : 16 бит
    Метод сжатия : С потерями
    Размер потока : 294 Мбайт (15%)
    Выравнивание : Разделение по промежуткам
    Продолжительность промежутка : 42 мс. (1,00 видеокадр)
    Время предзагрузки промежутка : 500 мс.

    Аудио #2
    Идентификатор : 2
    Формат : AC-3
    Формат/Информация : Audio Coding 3
    Расширение режима : CM (complete main)
    Идентификатор кодека : 2000
    Продолжительность : 1 ч. 46 м.
    Вид битрейта : Постоянный
    Битрейт : 448 Кбит/сек
    Каналы : 6 каналов
    Расположение каналов : Front: L C R, Side: L R, LFE
    Частота : 48,0 КГц
    Битовая глубина : 16 бит
    Метод сжатия : С потерями
    Размер потока : 343 Мбайт (17%)
    Выравнивание : Разделение по промежуткам
    Продолжительность промежутка : 42 мс. (1,00 видеокадр)
    Время предзагрузки промежутка : 500 мс.


    Скриншоты



    Релиз от:
    Залил: tahiy
    Размер: 7.93 GB (8515432960 Bytes)
    загрузка...
    Рейтинг →
     (голосов: 1, оценка 3/5, голосовать можно 1 раз )

    Другие торренты по теме:

  • Безумный Макс 3: Под куполом грома / Mad Max Beyond Thunderdome (1985) HDTV 1080p
  • Безумный Макс 2: Воин дороги / Mad Max 2 / The Road Warrior (1981) BDRip 1080p | UNRATED
  • Безумный Макс 3: Под куполом грома / Mad Max Beyond Thunderdome (1985) BDRip от HQCLUB
  • Безумный Макс 3: Под куполом грома / Mad Max Beyond Thunderdome (1985) HDRip от Scarabey | D
  • Безумный Макс 2: Воин дороги / Mad Max 2: The Road Warrior (1981) HDRip от Scarabey | D
  • Безумный Макс / Mad Max (1979) HDRip от Scarabey | D
  • Безумный Макс 3: Под куполом грома / Mad Max Beyond Thunderdome (1985) HDRip | КПК
  • Безумный Макс 2: Воин дороги / Mad Max 2 (1981) HDRip | КПК


    • Комментарии (0):

      Информация

      Информация

        Посетители, находящиеся в группе Гости, не могут оставлять комментарии в данной новости.

        ↓ Меню



        ↓ Опрос

        А Вы добавили сайт в закладки?
        Да
        Не


        Top 10 за месяц (Фильмы)