.
Авторизация | Регистрация
Хочешь лучшие торренты? Добавь свой email!
Добавить
» » Власть убеждений / The Power of Few (2013) WEB-DLRip 720p | L2 скачать торрент бесплатно




    Власть убеждений / The Power of Few (2013) WEB-DLRip 720p | L2 скачать торрент бесплатно

    Опубликовал: Админ | Дата: 27-02-2015, 11:09 | Просмотров: 344



    Информация о фильме
    Название: Власть убеждений
    Оригинальное название: The Power of Few
    Год выхода: 2013
    Жанр: боевик, триллер, драма, криминал, детектив
    Режиссер: Леоне Маркуччи
    В ролях: Кристофер Уокен, Кристиан Слэйтер, К’Орианка Килчер, Энтони Андерсон, Джесси Брэдфорд, Мун Бладгуд, Никки Уилан, Девон Джирхарт, Джордан Прентис, Джувенил

    О фильме:
    Через двадцать минут жизнь в маленьком городке в Новом Орлеане круто изменится. Как? Вариантов — бесчисленное множество, ведь за эти 20 минут может произойти бесчетное количество событий. Полисмены, шпионы, бродяги, криминальные авторитеты, религиозные лидеры, городские зеваки… — каждый может совершить нечто, что развернет течение истории в другом направлении. Ведь все мы неразрывно связаны друг с другом, даже если не подозреваем об этом! Выбор самого маленького человека может повлиять на самые большие события в мире…




    Страна: США
    Студия: Steelyard Pictures, iQ Films
    Продолжительность: 01:35:56
    Перевод: Любительский (двухголосый) Петя и Ко

    Файл
    Кодек: H.264
    Качество: WEB-DLRip 720p
    Видео: 4093 kb/s, 1280х714 The.Power.of.Few.2013.720p.WEB-DL.H264-VoXHD
    Звук:
    Аудио#1: AC3, 448 kb/s (6 ch) |RUS
    Аудио#2: AC3, 384 kb/s (6 ch) |ENG
    Субтитры: Английские

    Семпл


    MI
    Общее
    Уникальный идентификатор : 246346612296238861398210861775338839142 (0xB954A1B92FAE14B4907613B3CB5F9C66)
    Полное имя : C:Usersвласть убежденийThe.Power.of.Few.2013.720p.WEB-DL.mkv
    Формат : Matroska
    Версия формата : Version 2
    Размер файла : 3,37 Гбайт
    Продолжительность : 1 ч. 35 м.
    Общий поток : 5025 Кбит/сек
    Название фильма : ~C3PO~
    Дата кодирования : UTC 2013-06-01 16:58:31
    Программа кодирования : mkvmerge v5.8.0 (;No Sleep / Pillow;) built on Sep 2 2012 15:37:04
    Библиотека кодирования : libebml v1.2.3 libmatroska v1.3.0

    Видео
    Идентификатор : 1
    Формат : AVC
    Формат/Информация : Advanced Video Codec
    Профиль формата : High@L3.1
    Параметр CABAC формата : Нет
    Параметр ReFrames формата : 2 кадра
    Идентификатор кодека : V_MPEG4/ISO/AVC
    Продолжительность : 1 ч. 35 м.
    Битрейт : 4093 Кбит/сек
    Ширина : 1280 пикселей
    Высота : 714 пикселей
    Соотношение сторон : 16:9
    Режим частоты кадров : Постоянный
    Частота кадров : 23,976 кадра/сек
    Цветовое пространство : YUV
    Субдискретизация насыщенности : 4:2:0
    Битовая глубина : 8 бит
    Тип развёртки : Прогрессивная
    Бит/(Пиксели*Кадры) : 0.187
    Размер потока : 2,74 Гбайт (81%)
    Язык : English
    Default : Да
    Forced : Нет
    Основные цвета : BT.709
    Характеристики трансфера : BT.709
    Коэффициенты матрицы : BT.709

    Аудио #1
    Идентификатор : 2
    Формат : AC-3
    Формат/Информация : Audio Coding 3
    Расширение режима : CM (complete main)
    Параметр Endianness формата : Big
    Идентификатор кодека : A_AC3
    Продолжительность : 1 ч. 35 м.
    Вид битрейта : Постоянный
    Битрейт : 448 Кбит/сек
    Каналы : 6 каналов
    Расположение каналов : Front: L C R, Side: L R, LFE
    Частота : 48,0 КГц
    Битовая глубина : 16 бит
    Метод сжатия : С потерями
    Размер потока : 307 Мбайт (9%)
    Заголовок : L2
    Язык : Russian
    Default : Да
    Forced : Нет

    Аудио #2
    Идентификатор : 3
    Формат : AC-3
    Формат/Информация : Audio Coding 3
    Расширение режима : CM (complete main)
    Параметр Endianness формата : Big
    Идентификатор кодека : A_AC3
    Продолжительность : 1 ч. 35 м.
    Вид битрейта : Постоянный
    Битрейт : 384 Кбит/сек
    Каналы : 6 каналов
    Расположение каналов : Front: L C R, Side: L R, LFE
    Частота : 48,0 КГц
    Битовая глубина : 16 бит
    Метод сжатия : С потерями
    Размер потока : 264 Мбайт (8%)
    Язык : English
    Default : Нет
    Forced : Нет

    Текст
    Идентификатор : 4
    Формат : UTF-8
    Идентификатор кодека : S_TEXT/UTF8
    Идентификатор кодека/Информация : UTF-8 Plain Text
    Язык : English
    Default : Нет
    Forced : Нет


    Скриншоты


    Релиз от: ~C3PO~
    Залил: C3PO
    Размер: 3.37 GB (3615772522 Bytes)
    загрузка...
    Рейтинг →
     (голосов: 1, оценка 5/5, голосовать можно 1 раз )

    Другие торренты по теме:

  • Власть убеждений / The Power of Few (2013) BDRemux 1080p от Youtracker | P, L2, L | лицензия
  • Власть убеждений / The Power of Few (2013) BDRip 1080p от Youtracker | P, L2, L | лицензия
  • Власть убеждений / The Power of Few (2013) DVD9 R5 от Youtracker | P | лицензия
  • Власть убеждений / The Power of Few (2013) DVD5 от Youtracker | P | сжатый
  • Власть убеждений / The Power of Few (2013) BDRip 1080p | P | Лицензия
  • Власть убеждений / The Power of Few (2013) BDRip 720p от Youtracker | P, L2, L | лицензия
  • Власть убеждений / The Power of Few (2013) HDRip-AVC от Youtracker | P | лицензия
  • Власть убеждений / The Power of Few (2013) HDRip от Youtracker | P | лицензия


    • Комментарии (0):

      Информация

      Информация

        Посетители, находящиеся в группе Гости, не могут оставлять комментарии в данной новости.

        ↓ Меню



        ↓ Опрос

        А Вы добавили сайт в закладки?
        Да
        Не


        Top 10 за месяц (Фильмы)