.
Авторизация | Регистрация
Хочешь лучшие торренты? Добавь свой email!
Добавить
» » Пока ее не было / While She Was Out (2008) BDRip (720p) от 0ptimus скачать торрент бесплатно




    Пока ее не было / While She Was Out (2008) BDRip (720p) от 0ptimus скачать торрент бесплатно

    Опубликовал: Админ | Дата: 27-02-2015, 11:09 | Просмотров: 325



    Информация о фильме
    Название: Пока ее не было
    Оригинальное название: While She Was Out
    Год выхода: 2008
    Жанр: Триллер, криминал, драма
    Режиссер: Сьюзэн Монтфорд
    В ролях: Ким Бейсингер, Лукас Хаас, Джэми Старр, Леонард Ву, Луис Чавез, Крэйг Шеффер, Стив Арчер, Вейн Бернард, Лоссен Чэмберс

    О фильме:
    Накануне Рождества в людном торговом центре на парковке женщина цепляет записку на машину, занимающую два парковочных места. Четверо головорезов, вернувшись на парковку, обнаруживают бумажку на своей машине и, решив убить нахалку, начинают жуткую погоню сквозь лес, нисколько не ожидая, что у слабой женщины гораздо больше шансов выжить и победить в борьбе за свою жизнь.



    Страна: США, Канада, Германия
    Студия: Insight Film Studios, Angry Films, Victoria Filmproduktion, Proud Mary Entertainment, Redwood Palms Pictures, Grosvenor Park Media, Canadian Film or Video Production Tax Credit, Province of British Columbia Film Incentive BC
    Продолжительность: 01:25:51
    Перевод: Профессиональный (многоголосый закадровый), профессиональный (двухголосый закадровый)

    Файл
    Кодек: h264
    Качество: BDRip (720p)
    Видео: MPEG-4 AVC, 4274 Кбит/с, 1280x720, 23.976 кадр/с

    Звук:
    • №1: Русский (AC3, 6 ch, 384 Кбит/с) Профессиональный многоголосый R5
    • №2: Русский (AC3, 6 ch, 448 Кбит/с) Профессиональный двухголосый
    • №3: Английский (AC3, 6 ch, 640 Кбит/с)

    Субтитры: Русские, английские

    MediaInfo

    Полное имя : Poka.ee.ne.bilo.2008.x264.BDRip.(720p).0ptimus.mkv
    Формат : Matroska
    Версия формата : Version 2
    Размер файла : 3,45 Гбайт
    Продолжительность : 1 ч. 25 м.
    Общий поток : 5746 Кбит/сек
    Название фильма : Пока ее не было / While She Was Out 2008 -=BDRip (720p) by 0ptimus=-
    Дата кодирования : UTC 2013-01-09 13:30:30
    Программа кодирования : mkvmerge v5.8.0 (;No Sleep / Pillow;) built on Sep 2 2012 15:37:04
    Библиотека кодирования : libebml v1.2.3 libmatroska v1.3.0

    Видео
    Идентификатор : 1
    Формат : AVC
    Формат/Информация : Advanced Video Codec
    Профиль формата : High@L4.1
    Параметр CABAC формата : Да
    Параметр ReFrames формата : 9 кадров
    Идентификатор кодека : V_MPEG4/ISO/AVC
    Продолжительность : 1 ч. 25 м.
    Битрейт : 4274 Кбит/сек
    Ширина : 1280 пикселей
    Высота : 720 пикселей
    Соотношение сторон : 16:9
    Режим частоты кадров : Постоянный
    Частота кадров : 23,976 кадра/сек
    Цветовое пространство : YUV
    Субдискретизация насыщенности : 4:2:0
    Битовая глубина : 8 бит
    Тип развёртки : Прогрессивная
    Бит/(Пиксели*Кадры) : 0.193
    Размер потока : 2,49 Гбайт (72%)
    Библиотека кодирования : x264 core 129 r2230 1cffe9f
    Настройки программы : cabac=1 / ref=9 / deblock=1:-3:-3 / analyse=0x3:0x113 / me=umh / subme=11 / psy=1 / psy_rd=1.00:0.20 / mixed_ref=1 / me_range=48 / chroma_me=1 / trellis=2 / 8x8dct=1 / cqm=0 / deadzone=21,11 / fast_pskip=0 / chroma_qp_offset=-3 / threads=4 / lookahead_threads=1 / sliced_threads=0 / nr=0 / decimate=0 / interlaced=0 / bluray_compat=0 / constrained_intra=0 / bframes=11 / b_pyramid=2 / b_adapt=2 / b_bias=0 / direct=3 / weightb=1 / open_gop=0 / weightp=2 / keyint=240 / keyint_min=23 / scenecut=40 / intra_refresh=0 / rc_lookahead=40 / rc=2pass / mbtree=0 / bitrate=4274 / ratetol=1.0 / qcomp=0.60 / qpmin=0 / qpmax=69 / qpstep=4 / cplxblur=20.0 / qblur=0.5 / vbv_maxrate=50000 / vbv_bufsize=50000 / nal_hrd=none / ip_ratio=1.40 / pb_ratio=1.30 / aq=1:1.00
    Язык : English
    Default : Да
    Forced : Нет

    Аудио #1
    Идентификатор : 2
    Формат : AC-3
    Формат/Информация : Audio Coding 3
    Расширение режима : CM (complete main)
    Параметр Endianness формата : Big
    Идентификатор кодека : A_AC3
    Продолжительность : 1 ч. 25 м.
    Вид битрейта : Постоянный
    Битрейт : 384 Кбит/сек
    Каналы : 6 каналов
    Расположение каналов : Front: L C R, Side: L R, LFE
    Частота : 48,0 КГц
    Битовая глубина : 16 бит
    Метод сжатия : С потерями
    Размер потока : 236 Мбайт (7%)
    Заголовок : Многоголосый R5
    Язык : Russian
    Default : Да
    Forced : Да

    Аудио #2
    Идентификатор : 3
    Формат : AC-3
    Формат/Информация : Audio Coding 3
    Расширение режима : CM (complete main)
    Параметр Endianness формата : Big
    Идентификатор кодека : A_AC3
    Продолжительность : 1 ч. 25 м.
    Вид битрейта : Постоянный
    Битрейт : 448 Кбит/сек
    Каналы : 6 каналов
    Расположение каналов : Front: L C R, Side: L R, LFE
    Частота : 48,0 КГц
    Битовая глубина : 16 бит
    Метод сжатия : С потерями
    Размер потока : 275 Мбайт (8%)
    Заголовок : Двухголосый
    Язык : Russian
    Default : Нет
    Forced : Нет

    Аудио #3
    Идентификатор : 4
    Формат : AC-3
    Формат/Информация : Audio Coding 3
    Расширение режима : CM (complete main)
    Параметр Endianness формата : Big
    Идентификатор кодека : A_AC3
    Продолжительность : 1 ч. 25 м.
    Вид битрейта : Постоянный
    Битрейт : 640 Кбит/сек
    Каналы : 6 каналов
    Расположение каналов : Front: L C R, Side: L R, LFE
    Частота : 48,0 КГц
    Битовая глубина : 16 бит
    Метод сжатия : С потерями
    Размер потока : 393 Мбайт (11%)
    Язык : English
    Default : Нет
    Forced : Нет

    Текст #1
    Идентификатор : 5
    Формат : UTF-8
    Идентификатор кодека : S_TEXT/UTF8
    Идентификатор кодека/Информация : UTF-8 Plain Text
    Язык : Russian
    Default : Нет
    Forced : Нет

    Текст #2
    Идентификатор : 6
    Формат : UTF-8
    Идентификатор кодека : S_TEXT/UTF8
    Идентификатор кодека/Информация : UTF-8 Plain Text
    Язык : English
    Default : Нет
    Forced : Нет

    Меню
    00:00:00.000 : :Chapter 01
    00:10:02.601 : :Chapter 02
    00:20:03.201 : :Chapter 03
    00:30:03.801 : :Chapter 04
    00:40:04.402 : :Chapter 05
    00:50:05.001 : :Chapter 06
    01:00:05.601 : :Chapter 07
    01:10:06.202 : :Chapter 08
    01:20:06.801 : :Chapter 09
    01:25:50.895 : :Chapter 10

    Скриншоты




    Релиз от: 0ptimus
    Размер: 3.45 GB (3699757219 Bytes)
    загрузка...
    Рейтинг →
     (голосов: 1, оценка 3/5, голосовать можно 1 раз )

    Другие торренты по теме:

  • Пока я жив / Jab Tak Hai Jaan (2012) BDRip 720р от ICG amp Generalfilm
  • Пока ты спал / While You Were Sleeping (1995) BDRip 720p от R.G. GoldenShara | Лицензия
  • Пока не сыграл в ящик / The Bucket List (2007) BDRip-AVC | iPad
  • Пока еще не поздно (2013) SATRip
  • Пока живу, люблю (2013) SATRip от Files-x
  • Пока живу, люблю (01 из 02) (2013) HDTVRip от Files-x
  • Пока ты спал / While You Were Sleeping (1995) HDRip от Scarabey | Р скачать через торрент бесплатно
  • Fourth Dimension - Идея Была Хороша, Пока Ты Не Убил Себя (2006) MP3 скачать через торрент бесплатно


    • Комментарии (0):

      Информация

      Информация

        Посетители, находящиеся в группе Гости, не могут оставлять комментарии в данной новости.

        ↓ Меню



        ↓ Опрос

        А Вы добавили сайт в закладки?
        Да
        Не


        Top 10 за месяц (Фильмы)