.
Авторизация | Регистрация
Хочешь лучшие торренты? Добавь свой email!
Добавить
» » Грейсленд / Graceland HDTVRip | NewStudio скачать торрент бесплатно




    Грейсленд / Graceland HDTVRip | NewStudio скачать торрент бесплатно

    Опубликовал: Админ | Дата: 27-02-2015, 11:09 | Просмотров: 481

    Год выпуска: 2013
    Страна: США
    Жанр: драма
    Продолжительность: 00:44:00

    Перевод: Профессиональный (многоголосый закадровый)
    Русские субтитры: нет
    Режиссёр: Ренни Харлин

    В ролях: Дэниел Сунджата, Ванесса Ферлито, Брэндон Джей МакЛарен, Стивен Л. Коэн, Том Стэдхем, Аарон Твейт, Мэнни Монтана
    Педро Бальмаседа, Дженн Проске, Серинда Свон

    Описание: Сериал расскажет историю нескольких агентов разных спецслужб (ФБР, АНБ и Таможенной службы), работающих под прикрытием и живущих в одном пляжном доме.


    Озвучка: Александр Дасевич, Константин Погодаев, Владимир Курдов, Анна Тух
    Перевод: Александра Цернант

    Сэмпл: http://multi-up.com/868559

    Качество: HDTVRip
    Формат: AVI
    Видео кодек: XviD
    Аудио кодек: MP3
    Видео: 720x400 (16/9), 23.976 fps, ~1250 Kbps, 0.19 bit/pixel
    Аудио: 48 kHz, MPEG Layer 3, 2 ch, 128 kbps avg
    Аудио 2: 48 kHz, MPEG Layer 3, 2 ch, 128 kbps avg
    MediaInfo

    Общее
    Полное имя : I:ЗАКАЧКИGraceland.s01e01.HDTVRip.NewStudio.TV.avi
    Формат : AVI
    Формат/Информация : Audio Video Interleave
    Размер файла : 700 Мбайт
    Продолжительность : 1 ч. 3 м.
    Общий поток : 1548 Кбит/сек
    Программа кодирования : VirtualDubMod 1.5.10.2 (build 2540/release)
    Библиотека кодирования : VirtualDubMod build 2540/release

    Видео
    Идентификатор : 0
    Формат : MPEG-4 Visual
    Профиль формата : Advanced Simple@L5
    Параметр BVOP формата : 2
    Параметр QPel формата : Нет
    Параметр GMC формата : Без точки перехода
    Параметр матрицы формата : Default (MPEG)
    Идентификатор кодека : XVID
    Идентификатор кодека/Подсказка : XviD
    Продолжительность : 1 ч. 3 м.
    Битрейт : 1278 Кбит/сек
    Ширина : 720 пикселей
    Высота : 400 пикселей
    Соотношение сторон : 16:9
    Частота кадров : 23,976 кадра/сек
    Цветовое пространство : YUV
    Субдискретизация насыщенности : 4:2:0
    Битовая глубина : 8 бит
    Тип развёртки : Прогрессивная
    Метод сжатия : С потерями
    Бит/(Пиксели*Кадры) : 0.185
    Размер потока : 578 Мбайт (83%)
    Библиотека кодирования : XviD 65

    Аудио #1
    Идентификатор : 1
    Формат : MPEG Audio
    Версия формата : Version 1
    Профиль формата : Layer 3
    Режим : Joint stereo
    Идентификатор кодека : 55
    Идентификатор кодека/Подсказка : MP3
    Продолжительность : 1 ч. 3 м.
    Вид битрейта : Постоянный
    Битрейт : 128 Кбит/сек
    Каналы : 2 канала
    Частота : 48,0 КГц
    Метод сжатия : С потерями
    Размер потока : 57,9 Мбайт (8%)
    Выравнивание : Соединение по промежуткам
    Продолжительность промежутка : 42 мс. (1,00 видеокадр)
    Время предзагрузки промежутка : 504 мс.

    Аудио #2
    Идентификатор : 2
    Формат : MPEG Audio
    Версия формата : Version 1
    Профиль формата : Layer 3
    Режим : Joint stereo
    Расширение режима : MS Stereo
    Идентификатор кодека : 55
    Идентификатор кодека/Подсказка : MP3
    Продолжительность : 1 ч. 3 м.
    Вид битрейта : Постоянный
    Битрейт : 128 Кбит/сек
    Каналы : 2 канала
    Частота : 48,0 КГц
    Метод сжатия : С потерями
    Размер потока : 57,9 Мбайт (8%)
    Выравнивание : Соединение по промежуткам
    Продолжительность промежутка : 42 мс. (1,00 видеокадр)
    Время предзагрузки промежутка : 504 мс.

    Скриншоты




    Залил: DGEKIGAN
    Размер: 700.02 MB (734027776 Bytes)
    загрузка...
    Рейтинг →
     (голосов: 1, оценка 5/5, голосовать можно 1 раз )

    Другие торренты по теме:

  • Грейсленд / Graceland (2013) WEB-DL 1080p | NewStudio
  • Грейсленд / Graceland WEB-DL 720p | NewStudio
  • Грейсленд / Graceland WEB-DLRip | NewStudio
  • Грейсленд / Graceland (2013) WEBDLRip | P | NewStudio
  • Грейсленд / Graceland (2013) HDTVRip | Kerob скачать через торрент бесплатно
  • Грейсленд / Graceland (2013) HDTV 720p | Kerob скачать через торрент бесплатно
  • Грейсленд / Graceland (2013) HDTVRip | Kerob скачать через торрент бесплатно
  • Грейсленд, 2 сезон 1-13 серии из 13 / Graceland скачать через торрент бесплатно


    • Комментарии (0):

      Информация

      Информация

        Посетители, находящиеся в группе Гости, не могут оставлять комментарии в данной новости.

        ↓ Меню



        ↓ Опрос

        А Вы добавили сайт в закладки?
        Да
        Не


        Top 10 за месяц (Фильмы)