.
Авторизация | Регистрация
Хочешь лучшие торренты? Добавь свой email!
Добавить
» » Великая стена / The Great Wall (2016) UHD BDRemux 2160p от ExKinoRay | 4K | HDR | Лицензия скачать торрент бесплатно




    Великая стена / The Great Wall (2016) UHD BDRemux 2160p от ExKinoRay | 4K | HDR | Лицензия скачать торрент бесплатно

    Опубликовал: Админ | Дата: 1-12-2017, 11:00 | Просмотров: 0



    Детально о кино
    Русское название: Великая стена
    Русское название в мировом прокате: The Great Wall
    Создали в: 2016
    Категория жанра: Фэнтези, боевик, триллер, детектив, приключения
    Главный режиссер: Имоу Чжан

    Актеры
    Мэтт Дэймон, Тянь Цзин, Педро Паскаль, Лу Хан, Уиллем Дефо, Энди Лау, Эдди Пэн, Нуман Акар, Кенни Лин, Ханьюй Чжан, Вики Юй, Лю Бин, Чжэн Кай, Джонни Чикко, Чэни Чэнь, Кэрри Ван
    О фильме:
    На протяжении многих столетий каждые 60 лет на Великую стену набегают мифические пожиратели плоти, чередуясь с монголами и опиумными караванами. Двое европейских наемников из отсталых стран невольно оказываются втянутыми в круговорот веществ внутри пищевой цепи. Теперь им нужно решить для себя сложную нравственную дилемму - без шума и пыли вывезти пригоршню взрывающегося черного порошка, или все-таки помочь разноцветным войскам Поднебесной остановить вторжение орд кошмарных тварей

    Снималось в: Китай, США
    Киностудия: Atlas Entertainment, China Film Group Corporation, Legendary Pictures
    Время просмотра: 01: 43: 04
    Перевод текста: Дублированный | Лицензия
    Файл
    Качество фильма: BDRemux 2160p
    Информация о видео: MPEG-H HEVC HDR Video, 3840x2160, 65.9 Mbit/s, 23.976 fps
    Информация о звуке:
    Информация о звуке #01: 48 kHz, AC3, 5.1, 640 Kbps | Дублированный | RUS|
    Информация о звуке #02: 48 kHz, TrueHD, 7.1, 4915 Kbps | Оригинал | ENG|
    Информация о звуке #03: 48 kHz, AC3, 5.1, 640 Kbps | Оригинал | ENG|
    Субтитры: Русские (forced, full), английские

    MI
    General
    Unique ID : 176534111543998731747877833205126830112 (0x84CF3BB08F4D6295B93E54E1CD4C9820)
    Complete name : G: VideoSSDThe.Great.Wall.2016.Lic.BDREMUX.2160p.4K.UltraHD.HEVC.HDR.ExKinoRay.mkv
    Format : Matroska
    Format version : Version 4/Version 2
    File size : 52.0 GiB
    Duration : 1 h 43 min
    Overall bit rate mode : Variable
    Overall bit rate : 72.2 Mb/s
    Movie name : The.Great.Wall.2016.ExKinoRay
    Encoded date : UTC 2017-11-30 03: 38: 52
    Writing application : mkvmerge v17.0.0 (;Be Ur Friend;) 64-bit
    Writing library : libebml v1.3.5 + libmatroska v1.4.8
    Video
    ID : 1
    Format : HEVC
    Format/Info : High Efficiency Video Coding
    Format profile : Main 10@L5.1@High
    Codec ID : V_MPEGH/ISO/HEVC
    Duration : 1 h 43 min
    Bit rate : 65.9 Mb/s
    Width : 3 840 pixels
    Height : 2 160 pixels
    Display aspect ratio : 16: 9
    Frame rate mode : Constant
    Frame rate : 23.976 (24000/1001) FPS
    Color space : YUV
    Chroma subsampling : 4: 2: 0 (Type 2)
    Bit depth : 10 bits
    Bits/(Pixel*Frame) : 0.331
    Stream size : 47.4 GiB (91%)
    Language : English
    Default : Yes
    Forced : No
    Color range : Limited
    Color primaries : BT.2020
    Transfer characteristics : PQ
    Matrix coefficients : BT.2020 non-constant
    Mastering display color pri : R: x=0.680000 y=0.320000, G: x=0.265000 y=0.690000, B: x=0.150000 y=0.060000, White point: x=0.312700 y=0.329000
    Mastering display luminance : min: 0.0000 cd/m2, max: 1000.0000 cd/m2
    Maximum Content Light Level : 814 cd/m2
    Maximum Frame-Average Light : 192 cd/m2
    Audio #1
    ID : 2
    Format : AC-3
    Format/Info : Audio Coding 3
    Format settings, Endianness : Big
    Codec ID : A_AC3
    Duration : 1 h 43 min
    Bit rate mode : Constant
    Bit rate : 640 kb/s
    Channel(s) : 6 channels
    Channel positions : Front: L C R, Side: L R, LFE
    Sampling rate : 48.0 kHz
    Frame rate : 31.250 FPS (1536 SPF)
    Bit depth : 16 bits
    Compression mode : Lossy
    Stream size : 472 MiB (1%)
    Title : Dub License
    Language : Russian
    Service kind : Complete Main
    Default : Yes
    Forced : No
    Audio #2
    ID : 3
    Format : TrueHD
    Format profile : TrueHD+Atmos/TrueHD
    Codec ID : A_TRUEHD
    Duration : 1 h 43 min
    Bit rate mode : Variable
    Bit rate : 4 914 kb/s
    Maximum bit rate : 7 719 kb/s
    Channel(s) : Object Based/8 channels
    Channel positions : Object Based/Front: L C R, Side: L R, Back: L R, LFE
    Sampling rate : /48.0 kHz
    Frame rate : 1 200.000 FPS (40 SPF)
    Compression mode : Lossless
    Stream size : 3.54 GiB (7%)
    Title : Original
    Language : English
    Default : No
    Forced : No
    Audio #3
    ID : 4
    Format : AC-3
    Format/Info : Audio Coding 3
    Format settings, Endianness : Big
    Codec ID : A_AC3
    Duration : 1 h 43 min
    Bit rate mode : Constant
    Bit rate : 640 kb/s
    Channel(s) : 6 channels
    Channel positions : Front: L C R, Side: L R, LFE
    Sampling rate : 48.0 kHz
    Frame rate : 31.250 FPS (1536 SPF)
    Bit depth : 16 bits
    Compression mode : Lossy
    Stream size : 472 MiB (1%)
    Language : English
    Service kind : Complete Main
    Default : No
    Forced : No
    Text #1
    ID : 5
    Format : UTF-8
    Codec ID : S_TEXT/UTF8
    Codec ID/Info : UTF-8 Plain Text
    Duration : 1 h 25 min
    Bit rate : 1 b/s
    Count of elements : 22
    Stream size : 958 Bytes (0%)
    Title : Forced
    Language : Russian
    Default : Yes
    Forced : No
    Text #2
    ID : 6
    Format : UTF-8
    Codec ID : S_TEXT/UTF8
    Codec ID/Info : UTF-8 Plain Text
    Duration : 1 h 30 min
    Bit rate : 51 b/s
    Count of elements : 829
    Stream size : 34.0 KiB (0%)
    Title : Full
    Language : Russian
    Default : No
    Forced : No
    Text #3
    ID : 7
    Format : UTF-8
    Codec ID : S_TEXT/UTF8
    Codec ID/Info : UTF-8 Plain Text
    Duration : 1 h 28 min
    Bit rate : 23 b/s
    Count of elements : 590
    Stream size : 15.1 KiB (0%)
    Title : Full
    Language : English
    Default : No
    Forced : No
    Text #4
    ID : 8
    Format : UTF-8
    Codec ID : S_TEXT/UTF8
    Codec ID/Info : UTF-8 Plain Text
    Duration : 1 h 29 min
    Bit rate : 32 b/s
    Count of elements : 867
    Stream size : 21.2 KiB (0%)
    Title : SDH
    Language : English
    Default : No
    Forced : No
    Text #5
    ID : 9
    Format : UTF-8
    Codec ID : S_TEXT/UTF8
    Codec ID/Info : UTF-8 Plain Text
    Duration : 1 h 30 min
    Bit rate : 53 b/s
    Count of elements : 868
    Stream size : 35.7 KiB (0%)
    Title : SDH Colored
    Language : English
    Default : No
    Forced : No
    Menu
    00: 00: 00.000 : en: 00: 00: 00.000
    00: 05: 58.358 : en: 00: 05: 58.358
    00: 11: 47.540 : en: 00: 11: 47.540
    00: 16: 53.679 : en: 00: 16: 53.679
    00: 20: 13.254 : en: 00: 20: 13.254
    00: 25: 11.009 : en: 00: 25: 11.009
    00: 28: 55.317 : en: 00: 28: 55.317
    00: 33: 57.744 : en: 00: 33: 57.744
    00: 37: 54.147 : en: 00: 37: 54.147
    00: 42: 42.935 : en: 00: 42: 42.935
    00: 46: 18.943 : en: 00: 46: 18.943
    00: 50: 27.691 : en: 00: 50: 27.691
    00: 56: 46.069 : en: 00: 56: 46.069
    01: 01: 58.048 : en: 01: 01: 58.048
    01: 07: 12.820 : en: 01: 07: 12.820
    01: 12: 08.533 : en: 01: 12: 08.533
    01: 18: 20.863 : en: 01: 18: 20.863
    01: 23: 25.083 : en: 01: 23: 25.083
    01: 27: 26.158 : en: 01: 27: 26.158
    01: 31: 14.386 : en: 01: 31: 14.386

    Релиз подготовил: Автор релиза:
    Подпишись на меня, кликни по картинке :


    Онлайн видео Великая стена


    Размер скачиваемого торрента: 51.95 GB (55784757616 Bytes)

    Великая стена/The Great Wall (2016) UHD BDRemux 2160p от ExKinoRay | 4K | HDR | Лицензия
    загрузка...
    Рейтинг →
     (голосов: 1, оценка 4/5, голосовать можно 1 раз )

    Другие торренты по теме:

  • Великая стена / The Great Wall (2016) CAMRip | L
  • OST - Великая стена / The Great Wall (2017) FLAC
  • Великая стена / The Great Wall (2016) WEBRip | Звук с TS
  • Великая стена / The Great Wall (2016) WEBRip 1080р | Звук с TS
  • Великая стена / The Great Wall (2016) WEBRip | Line
  • Великая стена / The Great Wall (2016) WEBRip 1080p | Line
  • Великая стена / The Great Wall (2016) WEB-DLRip-AVC от OlLanDGroup | iTunes
  • Великая стена / The Great Wall (2016) WEB-DLRip-AVC от ExKinoRay | iTunes


    • Комментарии (0):

      Информация

      Информация

        Посетители, находящиеся в группе Гости, не могут оставлять комментарии в данной новости.

        ↓ Меню



        ↓ Опрос

        А Вы добавили сайт в закладки?
        Да
        Не


        Top 10 за месяц (Фильмы)