.
Авторизация | Регистрация
Хочешь лучшие торренты? Добавь свой email!
Добавить
» » Вспомнить заново / Rememory (2017) BDRip 720p | AlexFilm скачать торрент бесплатно




    Вспомнить заново / Rememory (2017) BDRip 720p | AlexFilm скачать торрент бесплатно

    Опубликовал: Админ | Дата: 1-12-2017, 11:00 | Просмотров: 0



    Детально о кино
    Русское название: Вспомнить заново
    Русское название в мировом прокате: Rememory
    Создали в: 2017
    Категория жанра: фантастика, драма, детектив
    Главный режиссер: Марк Палански

    Актеры
    Питер Динклэйдж, Мэтт Эллис, Джордана Ларги, Мартин Донован, Эвелин Брошу, Генри Иэн Кьюсик, Антон Ельчин, Джулия Ормонд, Грэйсин Шиней, Колин Лоуренс

    Описание фильма
    Фильм расскажет о гениальном ученом, загадочным образом умирающем ровно за день до представления своего уникального открытия — прибора, который может записывать и воспроизводить воспоминания.

    Снималось в: Канада, США
    Время просмотра: 01: 51: 53
    Перевод текста: Профессиональный (многоголосый закадровый) AlexFilm
    Субтитры: нет
    Оригинальная аудиодорожка: английская
    Файл
    Качество фильма: BDRip 720p
    Информация о видео: MPEG4/ISO/AVC, 2.40: 1, 23.976 fps, 1280x534p, 4490 kb/s
    Информация о звуке 1: RUS/AC-3, 48.0 kHz, 2.0, 192 kb/s | профессиональный многоголосый AlexFilm
    Информация о звуке 2: ENG/DTS, 48.0 kHz, 5.1, 1509 kb/s | оригинал
    Скриншоты

    MediaInfo
    Формат : Matroska
    Версия формата : Version 2
    Размер файла : 4, 94 Гбайт
    Продолжительность : 1 ч. 51 м.
    Общий поток : 6317 Кбит/сек
    Дата кодирования : UTC 2017-11-29 18: 32: 52
    Программа кодирования : mkvmerge v7.6.0 (;Garden of Dreams;) 32bit built on Feb 11 2015 00: 18: 47
    Библиотека кодирования : libebml v1.3.1 + libmatroska v1.4.2
    Обложка : Yes
    Attachments : cover.jpg
    Видео
    Идентификатор : 1
    Формат : AVC
    Формат/Информация : Advanced Video Codec
    Профиль формата : High@L4.1
    Настройки формата : CABAC/12 Ref Frames
    Параметр CABAC формата : Да
    Параметр RefFrames формата : 12 кадров
    Идентификатор кодека : V_MPEG4/ISO/AVC
    Продолжительность : 1 ч. 51 м.
    Битрейт : 4490 Кбит/сек
    Ширина : 1280 пикселей
    Высота : 534 пикселя
    Соотношение сторон : 2, 40: 1
    Режим частоты кадров : Постоянный
    Частота кадров : 23, 976 (24000/1001) кадра/сек
    Цветовое пространство : YUV
    Субдискретизация насыщенности : 4: 2: 0
    Битовая глубина : 8 бит
    Тип развёртки : Прогрессивная
    Бит/(Пиксели*Кадры) : 0.274
    Размер потока : 3, 51 Гбайт (71%)
    Библиотека кодирования : x264 core 152 r2851 ba24899
    Настройки программы : cabac=1/ref=12/deblock=1: -3: -3/analyse=0x3: 0x113/me=umh/subme=10/psy=1/psy_rd=1.02: 0.02/mixed_ref=1/me_range=24/chroma_me=1/trellis=2/8x8dct=1/cqm=0/deadzone=21, 11/fast_pskip=1/chroma_qp_offset=-3/threads=6/lookahead_threads=1/sliced_threads=0/nr=0/decimate=0/interlaced=0/bluray_compat=0/constrained_intra=0/bframes=10/b_pyramid=2/b_adapt=2/b_bias=0/direct=1/weightb=1/open_gop=0/weightp=2/keyint=250/keyint_min=23/scenecut=40/intra_refresh=0/rc_lookahead=60/rc=crf/mbtree=0/crf=14.8/qcomp=0.62/qpmin=0/qpmax=69/qpstep=4/vbv_maxrate=62500/vbv_bufsize=78125/crf_max=0.0/nal_hrd=none/filler=0/ip_ratio=1.40/pb_ratio=1.30/aq=1: 0.78
    Default : Да
    Forced : Нет
    Statistics Tags Issue : mkvmerge v18.0.0 (;Apricity;) 64-bit 2017-11-27 14: 34: 41/mkvmerge v7.6.0 (;Garden of Dreams;) 32bit built on Feb 11 2015 00: 18: 47 2017-11-29 18: 32: 52
    FromStats_BitRate : 4613123
    FromStats_Duration : 01: 51: 56.752000000
    FromStats_FrameCount : 161041
    FromStats_StreamSize : 3873150759
    Аудио #1
    Идентификатор : 2
    Формат : AC-3
    Формат/Информация : Audio Coding 3
    Идентификатор кодека : A_AC3
    Продолжительность : 1 ч. 51 м.
    Вид битрейта : Постоянный
    Битрейт : 192 Кбит/сек
    Каналы : 2 канала
    Расположение каналов : Front: L R
    Частота : 48, 0 КГц
    Частота кадров : 31, 250 кадров/сек (1536 SPF)
    Битовая глубина : 16 бит
    Метод сжатия : С потерями
    Размер потока : 154 Мбайт (3%)
    Язык : Russian
    Default : Да
    Forced : Нет
    Аудио #2
    Идентификатор : 3
    Формат : DTS
    Формат/Информация : Digital Theater Systems
    Идентификатор кодека : A_DTS
    Продолжительность : 1 ч. 51 м.
    Вид битрейта : Постоянный
    Битрейт : 1509 Кбит/сек
    Каналы : 6 каналов
    Расположение каналов : Front: L C R, Side: L R, LFE
    Частота : 48, 0 КГц
    Частота кадров : 93, 750 кадра/сек (512 SPF)
    Битовая глубина : 24 бит
    Метод сжатия : С потерями
    Размер потока : 1, 18 Гбайт (24%)
    Язык : English
    Default : Нет
    Forced : Нет
    Меню
    00: 00: 00.000 : en: 00: 00: 00.000
    00: 07: 04.924 : en: 00: 07: 04.924
    00: 12: 50.228 : en: 00: 12: 50.228
    00: 18: 17.471 : en: 00: 18: 17.471
    00: 24: 47.486 : en: 00: 24: 47.486
    00: 32: 51.052 : en: 00: 32: 51.052
    00: 41: 13.805 : en: 00: 41: 13.805
    00: 46: 14.772 : en: 00: 46: 14.772
    00: 54: 20.299 : en: 00: 54: 20.299
    01: 01: 30.603 : en: 01: 01: 30.603
    01: 06: 42.915 : en: 01: 06: 42.915
    01: 14: 57.701 : en: 01: 14: 57.701
    01: 21: 11.074 : en: 01: 21: 11.074
    01: 28: 28.428 : en: 01: 28: 28.428
    01: 36: 12.266 : en: 01: 36: 12.266
    01: 42: 20.634 : en: 01: 42: 20.634


    Онлайн видео Вспомнить заново


    Размер скачиваемого торрента: 4.94 GB (5300975494 Bytes)

    Вспомнить заново/Rememory (2017) BDRip 720p | AlexFilm
    загрузка...
    Рейтинг →
     (голосов: 1, оценка 4/5, голосовать можно 1 раз )

    Другие торренты по теме:

  • Вспомнить заново / Rememory (2017) WEBRip 720p | L
  • Вспомнить заново / Rememory (2017) WEBRip | AlexFilm


    • Комментарии (0):

      Информация

      Информация

        Посетители, находящиеся в группе Гости, не могут оставлять комментарии в данной новости.

        ↓ Меню



        ↓ Опрос

        А Вы добавили сайт в закладки?
        Да
        Не


        Top 10 за месяц (Фильмы)