.
Авторизация | Регистрация
Хочешь лучшие торренты? Добавь свой email!
Добавить




Тим / Tim (1979) BDRip 720p | L1 скачать торрент бесплатно

Опубликовал: Админ | Дата: 1-12-2017, 11:00 | Просмотров: 0



Детально о кино
Русское название: Тим
Русское название в мировом прокате: Tim
Создали в: 1979
Категория жанра: драма, мелодрама
Главный режиссер: Майкл Пэйт

Актеры
Пайпер Лори, Мэл Гибсон, Alwyn Kurts, Пэт Эвисон, Питер Гуинн, Дебора Кеннеди, Дэвид Фостер, Майкл Колфилд, Марго Ли, Джеймс Кондон, Кевин Лесли, Аллан Пенни, Брайан Барри, Джофф Ашер

Описание фильма
Тим — очень добрый молодой человек, с ограниченными умственными способностями. Он работает на стройке, и друзья часто подшучивают над ним. Мэри, женщина гораздо старше его, однажды приглашает Тима поработать в ее саду.
Работа на выходные затягивается на несколько недель. Эти совершенно разные люди, постепенно узнают друг друга, и между ними возникает взаимное чувство. Однако жители маленького городка начинают судачить и бросать откровенно осуждающие взгляды…

Снималось в: Австралия
Время просмотра: 01: 48: 22
Перевод текста: Любительский (одноголосый, закадровый) О. Воротилин
Субтитры: русские, английские
Оригинальная аудиодорожка: английский
Файл
Качество фильма: BDRip 720p | GER Transfer
Информация о видео: AVC/1280x692/1.85: 1/23.976 fps/12000 kbps/High@L4.1
Информация о звуке 1: Rus/DTS/48.0 KHz/2.0/768 kbps/16 bit/О. Воротилин
Информация о звуке 2: Eng/DTS/48.0 KHz/2.0/768 kbps/16 bit
Скриншоты

MediaInfo
Общее
Уникальный идентификатор : 208649395387150861838912408177708138070 (0x9CF8696EB3EA511B8AF71A14C9EC7E56)
Полное имя : Tim.1979.BDRip.720p.mkv
Формат : Matroska
Версия формата : Version 4/Version 2
Размер файла : 10, 2 Гбайт
Продолжительность : 1 ч. 48 м.
Общий поток : 13, 5 Мбит/сек
Название фильма : Tim.1979.BDRip.720p-porvaliparus
Дата кодирования : UTC 2017-11-30 03: 31: 07
Программа кодирования : mkvmerge v18.0.0 (;Apricity;) 64-bit
Библиотека кодирования : libebml v1.3.5 + libmatroska v1.4.8
Видео
Идентификатор : 1
Формат : AVC
Формат/Информация : Advanced Video Codec
Профиль формата : High@L4.1
Настройки формата : CABAC/9 Ref Frames
Параметр CABAC формата : Да
Параметр RefFrames формата : 9 кадров
Идентификатор кодека : V_MPEG4/ISO/AVC
Продолжительность : 1 ч. 48 м.
Битрейт : 12, 0 Мбит/сек
Ширина : 1280 пикселей
Высота : 692 пикселя
Соотношение сторон : 1, 85: 1
Режим частоты кадров : Постоянный
Частота кадров : 23, 976 (24000/1001) кадра/сек
Цветовое пространство : YUV
Субдискретизация насыщенности : 4: 2: 0
Битовая глубина : 8 бит
Тип развёртки : Прогрессивная
Бит/(Пиксели*Кадры) : 0.565
Размер потока : 9, 08 Гбайт (89%)
Заголовок : Tim.1979.BDRip.720p
Библиотека кодирования : x264 core 152 r2851 ba24899
Настройки программы : cabac=1/ref=9/deblock=1: -3: -3/analyse=0x3: 0x133/me=umh/subme=11/psy=1/psy_rd=1.00: 0.10/mixed_ref=1/me_range=32/chroma_me=1/trellis=2/8x8dct=1/cqm=0/deadzone=21, 11/fast_pskip=0/chroma_qp_offset=-3/threads=12/lookahead_threads=3/sliced_threads=0/nr=0/decimate=1/interlaced=0/bluray_compat=0/constrained_intra=0/bframes=10/b_pyramid=2/b_adapt=2/b_bias=0/direct=3/weightb=1/open_gop=0/weightp=2/keyint=250/keyint_min=23/scenecut=40/intra_refresh=0/rc_lookahead=40/rc=2pass/mbtree=0/bitrate=12000/ratetol=1.0/qcomp=0.60/qpmin=0/qpmax=69/qpstep=4/cplxblur=20.0/qblur=0.5/vbv_maxrate=50000/vbv_bufsize=62500/nal_hrd=none/filler=0/ip_ratio=1.40/pb_ratio=1.30/aq=1: 0.80
Default : Да
Forced : Нет
Аудио #1
Идентификатор : 2
Формат : DTS
Формат/Информация : Digital Theater Systems
Идентификатор кодека : A_DTS
Продолжительность : 1 ч. 48 м.
Вид битрейта : Постоянный
Битрейт : 768 Кбит/сек
Каналы : 2 канала
Расположение каналов : Front: L R
Частота : 48, 0 КГц
Частота кадров : 93, 750 кадра/сек (512 SPF)
Битовая глубина : 16 бит
Метод сжатия : С потерями
Размер потока : 595 Мбайт (6%)
Заголовок : VO О. Воротилин
Язык : Russian
Default : Да
Forced : Нет
Аудио #2
Идентификатор : 3
Формат : DTS
Формат/Информация : Digital Theater Systems
Идентификатор кодека : A_DTS
Продолжительность : 1 ч. 48 м.
Вид битрейта : Постоянный
Битрейт : 768 Кбит/сек
Каналы : 2 канала
Расположение каналов : Front: L R
Частота : 48, 0 КГц
Частота кадров : 93, 750 кадра/сек (512 SPF)
Битовая глубина : 16 бит
Метод сжатия : С потерями
Размер потока : 595 Мбайт (6%)
Язык : English
Default : Нет
Forced : Нет
Текст #1
Идентификатор : 4
Формат : UTF-8
Идентификатор кодека : S_TEXT/UTF8
Идентификатор кодека/Информация : UTF-8 Plain Text
Продолжительность : 1 ч. 46 м.
Битрейт : 71 бит/сек
ElementCount : 1080
Размер потока : 56, 0 Кбайт (0%)
Заголовок : moleva
Язык : Russian
Default : Нет
Forced : Нет
Текст #2
Идентификатор : 5
Формат : UTF-8
Идентификатор кодека : S_TEXT/UTF8
Идентификатор кодека/Информация : UTF-8 Plain Text
Продолжительность : 1 ч. 43 м.
Битрейт : 45 бит/сек
ElementCount : 889
Размер потока : 34, 1 Кбайт (0%)
Язык : English
Default : Нет
Forced : Нет
Меню
00: 00: 00.000 : en: Глава 01/: Глава 09
00: 06: 51.744 : en: Глава 02
00: 16: 12.513 : en: Глава 03
00: 20: 06.788 : en: Глава 04
00: 26: 46.021 : en: Глава 05
00: 34: 03.583 : en: Глава 06
00: 39: 43.297 : en: Глава 07
00: 47: 00.359 : en: Глава 08
00: 52: 21.555 : en: Глава 09
00: 57: 40.707 : en: Глава 11
01: 02: 21.237 : en: Глава 12
01: 10: 43.280 : en: Глава 13
01: 18: 31.957 : en: Глава 14
01: 24: 55.715 : en: Глава 15
01: 33: 04.829 : en: Глава 16
01: 41: 29.625 : en: Глава 17
01: 48: 21.536 : en: Глава 18

Размер скачиваемого торрента: 10.25 GB (11002770771 Bytes)

Тим/Tim (1979) BDRip 720p | L1
загрузка...
Рейтинг →
 (голосов: 1, оценка 3/5, голосовать можно 1 раз )

Другие торренты по теме:

  • Гадкий Я: Мини-фильмы. Миньоны / Despicable Me Presents: Minion Madness / Despicable Me: Mini-Movies(2010) BDRip-AVC | P
  • Gekijouban Mahou Shoujo Madoka Magica / Девочка-волшебница Мадока (Фильмы) (2013) BDRip 1080p | AniFilm MVO скачать через торрент бесплатно
  • Gekijouban Mahou Shoujo Madoka Magica / Девочка-волшебница Мадока (Фильмы) (2013) BDRip 720p | AniFilm MVO скачать через торрент бесплатно
  • Облачно... 2: Мини-фильмы / Cloudy with a Chance of Meatballs 2: Mini-Movies (2013) BDRip от HQCLUB | Лицензия скачать через торрент бесплатно
  • Naruto Фильмы / Naruto Movies (2003-2012) BDRip | SHIZA Project
  • Миньоны: Мини-фильмы / Minions: Mini-Movie - The Competition (2015) BDRip 720p | D


    • Комментарии (0):

      Информация

      Информация

        Посетители, находящиеся в группе Гости, не могут оставлять комментарии в данной новости.

        ↓ Меню



        ↓ Опрос

        А Вы добавили сайт в закладки?
        Да
        Не


        Top 10 за месяц (Фильмы)