.
Авторизация | Регистрация
Хочешь лучшие торренты? Добавь свой email!
Добавить
» » Самурай: Путь воина / Miyamoto Musashi (1954) BDRemux 1080р | P, A скачать торрент бесплатно




    Самурай: Путь воина / Miyamoto Musashi (1954) BDRemux 1080р | P, A скачать торрент бесплатно

    Опубликовал: Админ | Дата: 1-12-2017, 11:00 | Просмотров: 0



    Детально о кино
    Русское название: Самурай: Путь воина
    Русское название в мировом прокате: Miyamoto Musashi
    Создали в: 1954
    Категория жанра: боевик, драма, мелодрама, приключения, биография, история
    Главный режиссер: Хироси Инагаки

    Актеры
    Тосиро Мифунэ, Рэнтаро Микуни, Куроэмон Оноэ, Каору Ятигуса, Марико Окада, Мицуко Мито, Эйко Миёси, Акихико Хирата, Кусуо Абе, Эйтаро Одзава

    Описание фильма
    Начало зрелищного сказания, впечатляющий рассказ о юности будущего героя. Примкнув к великой армии, Миямото получает боевое крещение в великой битве при Секигахара, но вскоре вновь становится непредсказуемым одиночкой, чей буйный нрав вселяет страх в каждого встречного. Лишь мудрому буддийскому монаху удается превратить жестокого ронина Мусаси в отважного самурая на службе у сил добра. Отныне никто не сравнится с ним в боевой доблести и чистоте духа.

    Снималось в: Япония
    Время просмотра: 01: 33: 50
    Перевод текста 1: Профессиональный (многоголосый закадровый)
    Перевод текста 2: Авторский (одноголосый закадровый) Ю. Сербин
    Субтитры: русские, английские
    Оригинальная аудиодорожка: японский
    Файл
    Качество фильма: BDRemux 1080р
    Информация о видео: AVC/1920x1080/16: 9/23.976fps/25497 kbps/High@L4.1
    Информация о звуке 1: Rus/AC3/48.0 KHz/2ch./192 kbps/MVO
    Информация о звуке 2: Rus/AC3/48.0 KHz/2ch./192 kbps/AVO/Ю. Сербин
    Информация о звуке 3: Jap/FLAC/48.0 KHz/1ch./213 kbps/16bit
    Скриншоты

    MediaInfo
    Общее
    Уникальный идентификатор : 253340250357281729272827996802313300951 (0xBE978EB39CB9B067BA0AD2ACFDEB2BD7)
    Полное имя : Samurai.I.Miyamoto Musashi.1954.BDRemux.1080p.mkv
    Формат : Matroska
    Версия формата : Version 4/Version 2
    Размер файла : 17, 0 Гбайт
    Продолжительность : 1 ч. 33 м.
    Режим общего битрейта : Переменный
    Общий поток : 26, 0 Мбит/сек
    Название фильма : Samurai.I.Miyamoto Musashi.1954.BDRemux.1080p-porvaliparus
    Дата кодирования : UTC 2017-05-15 07: 29: 30
    Программа кодирования : mkvmerge v11.0.0 (;Alive;) 64bit
    Библиотека кодирования : libebml v1.3.4 + libmatroska v1.4.5
    Видео
    Идентификатор : 1
    Формат : AVC
    Формат/Информация : Advanced Video Codec
    Профиль формата : High@L4.1
    Параметр CABAC формата : Да
    Параметр ReFrames формата : 4 кадра
    Идентификатор кодека : V_MPEG4/ISO/AVC
    Продолжительность : 1 ч. 33 м.
    Вид битрейта : Переменный
    Битрейт : 25, 4 Мбит/сек
    Максимальный битрейт : 37, 0 Мбит/сек
    Ширина : 1920 пикселей
    Высота : 1080 пикселей
    Соотношение сторон : 16: 9
    Режим частоты кадров : Постоянный
    Частота кадров : 23, 976 (24000/1001) кадра/сек
    Цветовое пространство : YUV
    Субдискретизация насыщенности : 4: 2: 0
    Битовая глубина : 8 бит
    Тип развёртки : Прогрессивная
    Бит/(Пиксели*Кадры) : 0.511
    Размер потока : 16, 6 Гбайт (98%)
    Заголовок : Samurai.I.Miyamoto Musashi.1954.BDRemux.1080p
    Default : Да
    Forced : Нет
    Аудио #1
    Идентификатор : 2
    Формат : AC-3
    Формат/Информация : Audio Coding 3
    Параметр Endianness формата : Big
    Идентификатор кодека : A_AC3
    Продолжительность : 1 ч. 33 м.
    Вид битрейта : Постоянный
    Битрейт : 192 Кбит/сек
    Каналы : 2 канала
    Расположение каналов : Front: L R
    Частота : 48, 0 КГц
    Частота кадров : 31, 250 кадров/сек (1536 spf)
    Битовая глубина : 16 бит
    Метод сжатия : С потерями
    Размер потока : 129 Мбайт (1%)
    Заголовок : MVO
    Язык : Russian
    Default : Да
    Forced : Нет
    Аудио #2
    Идентификатор : 3
    Формат : AC-3
    Формат/Информация : Audio Coding 3
    Параметр Endianness формата : Big
    Идентификатор кодека : A_AC3
    Продолжительность : 1 ч. 33 м.
    Вид битрейта : Постоянный
    Битрейт : 192 Кбит/сек
    Каналы : 2 канала
    Расположение каналов : Front: L R
    Частота : 48, 0 КГц
    Частота кадров : 31, 250 кадров/сек (1536 spf)
    Битовая глубина : 16 бит
    Метод сжатия : С потерями
    Размер потока : 129 Мбайт (1%)
    Заголовок : AVO Ю. Сербин
    Язык : Russian
    Default : Нет
    Forced : Нет
    Аудио #3
    Идентификатор : 4
    Формат : FLAC
    Формат/Информация : Free Lossless Audio Codec
    Идентификатор кодека : A_FLAC
    Продолжительность : 1 ч. 33 м.
    Вид битрейта : Переменный
    Битрейт : 213 Кбит/сек
    Каналы : 1 канал
    Расположение каналов : Front: C
    Частота : 48, 0 КГц
    Частота кадров : 11, 719 кадров/сек (4096 spf)
    Битовая глубина : 16 бит
    Размер потока : 143 Мбайт (1%)
    Библиотека кодирования : libFLAC 1.2.1 (UTC 2007-09-17)
    Язык : Japanese
    Default : Нет
    Forced : Нет
    Текст #1
    Идентификатор : 5
    Формат : UTF-8
    Идентификатор кодека : S_TEXT/UTF8
    Идентификатор кодека/Информация : UTF-8 Plain Text
    Продолжительность : 1 ч. 33 м.
    Битрейт : 46 бит/сек
    ElementCount : 705
    Размер потока : 31, 8 Кбайт (0%)
    Язык : Russian
    Default : Нет
    Forced : Нет
    Текст #2
    Идентификатор : 6
    Формат : UTF-8
    Идентификатор кодека : S_TEXT/UTF8
    Идентификатор кодека/Информация : UTF-8 Plain Text
    Продолжительность : 1 ч. 33 м.
    Битрейт : 27 бит/сек
    ElementCount : 721
    Размер потока : 18, 5 Кбайт (0%)
    Язык : English
    Default : Нет
    Forced : Нет
    Меню
    00: 00: 00.000 : : Глава 01
    00: 02: 49.169 : : Глава 02
    00: 04: 15.505 : : Глава 03
    00: 06: 36.396 : : Глава 04
    00: 12: 49.894 : : Глава 05
    00: 13: 39.444 : : Глава 06
    00: 17: 24.627 : : Глава 07
    00: 19: 22.328 : : Глава 08
    00: 29: 05.535 : : Глава 09
    00: 33: 18.205 : : Глава 10
    00: 34: 09.047 : : Глава 11
    00: 35: 13.069 : : Глава 12
    00: 43: 40.660 : : Глава 13
    00: 48: 10.930 : : Глава 14
    00: 56: 15.539 : : Глава 15
    00: 56: 57.789 : : Глава 16
    01: 06: 14.429 : : Глава 17
    01: 15: 50.963 : : Глава 18
    01: 19: 23.759 : : Глава 19
    01: 24: 27.688 : : Глава 20


    Онлайн видео Самурай: Путь воина


    Размер скачиваемого торрента: 17.04 GB (18297633388 Bytes)

    Самурай: Путь воина/Miyamoto Musashi (1954) BDRemux 1080р | P, A
    загрузка...
    Рейтинг →
     (голосов: 1, оценка 3/5, голосовать можно 1 раз )

    Другие торренты по теме:

  • Самурай: Путь воина / Samurai 1: Miyamoto Musashi (1954) BDRip 720p | P, A


    • Комментарии (0):

      Информация

      Информация

        Посетители, находящиеся в группе Гости, не могут оставлять комментарии в данной новости.

        ↓ Меню



        ↓ Опрос

        А Вы добавили сайт в закладки?
        Да
        Не


        Top 10 за месяц (Фильмы)