.
Авторизация | Регистрация
Хочешь лучшие торренты? Добавь свой email!
Добавить
» » Телефонная будка / Phone Booth (2002) BDRip 720p от KinoGadget | iPad | D скачать торрент бесплатно




    Телефонная будка / Phone Booth (2002) BDRip 720p от KinoGadget | iPad | D скачать торрент бесплатно

    Опубликовал: Админ | Дата: 1-12-2017, 11:00 | Просмотров: 0



    Создали в: 2002
    Русское название в мировом прокате: Phone Booth
    Снималось в: США
    Категория жанра: триллер, криминал
    Возраст: 16+
    Главный режиссер: Джоэл Шумахер

    Актеры
    Колин Фаррелл, Кифер Сазерленд, Форест Уитакер, Рада Митчелл, Кэти Холмс, Пола Джей Паркер, Ариан Варинг Эш, Тиа Тексада, Джон Инос III, Ричард Т. Джонс, Кит Ноббс, Делл Йонт, Джеймс МакДональд, Джош Пэйс, Йорго Константин, Колин Патрик Линч
    Описание: Один телефонный звонок может изменить всю жизнь человека или даже оборвать ее. Герой фильма Стью Шеферд становится пленником телефонной будки.
    Что вы сделаете, если услышите, как в телефонной будке зазвонил телефон? Скорее всего, инстинктивно поднимете трубку, хотя прекрасно знаете, что кто-то просто ошибся номером. Вот и Стью кажется, что на звонок надо обязательно ответить, а в результате он оказывается втянутым в чудовищную игру. Только положи трубку, и ты — труп, — говорит ему невидимый собеседник.
    Время просмотра: 01: 21: 00
    Перевод текста: Дублированный
    Оригинальная дорожка: есть
    Автор рипа:
    Качество фильма видео: BDRip 720p Исходник: Blu-Ray Remux (1080p) Тип видео: mp4
    Информация о видео кодек: MPEG-4 AVC Информация о звуке кодек: AAC
    Информация о видео: 1280x544 (2.35: 1) at 23.976 fps, AVC at 3 894 kbps avg, 0.233 bit/pixel
    Информация о звуке №1 Rus: 48.0 KHz, AAC, 2 ch, 160.0 Kbps
    Информация о звуке №2 Eng: 48.0 KHz, AAC, 2 ch, 160.0 Kbps
    Субтитры: русские (полные), английские (полные)
    Навигация по главам: есть
    Размер скачиваемого торрента: 2.39 GiB
    Log x264
    avs info: 1280x544p 1: 1 @ 24000/1001 fps (cfr)
    x264 info: using SAR=1/1
    x264 info: using cpu capabilities: MMX2 SSE2Fast SSSE3 Cache64
    x264 info: profile High, level 4.1
    x264 info: frame I: 892 Avg QP: 17.14 size: 108214
    x264 info: frame P: 23426 Avg QP: 20.29 size: 40112
    x264 info: frame B: 92214 Avg QP: 22.50 size: 14417
    x264 info: consecutive B-frames: 1.5% 1.4% 4.3% 18.3% 19.1% 42.0% 8.2% 3.1% 2.0%
    x264 info: mb I I16..4: 3.9% 79.0% 17.1%
    x264 info: mb P I16..4: 0.9% 11.9% 1.4% P16..4: 39.1% 27.9% 14.0% 0.0% 0.0% skip: 4.9%
    x264 info: mb B I16..4: 0.0% 1.1% 0.1% B16..8: 45.4% 11.4% 2.8% direct: 8.1% skip: 30.9% L0: 44.7% L1: 44.7% BI: 10.6%
    x264 info: 8x8 transform intra: 83.5% inter: 65.7%
    x264 info: coded y, uvDC, uvAC intra: 88.3% 78.7% 40.3% inter: 36.4% 28.4% 1.3%
    x264 info: i16 v, h, dc, p: 49% 15% 7% 29%
    x264 info: i8 v, h, dc, ddl, ddr, vr, hd, vl, hu: 18% 12% 22% 6% 8% 10% 8% 9% 8%
    x264 info: i4 v, h, dc, ddl, ddr, vr, hd, vl, hu: 23% 14% 12% 6% 10% 11% 9% 8% 6%
    x264 info: i8c dc, h, v, p: 50% 18% 23% 8%
    x264 info: Weighted P-Frames: Y: 3.4% UV: 1.4%
    x264 info: ref P L0: 41.5% 13.0% 17.8% 6.5% 6.1% 4.1% 4.2% 2.3% 2.4% 2.0% 0.1% 0.0%
    x264 info: ref B L0: 77.3% 9.9% 4.7% 2.5% 1.8% 1.6% 1.3% 0.6% 0.3%
    x264 info: ref B L1: 95.6% 4.4%
    x264 info: kb/s: 3893.75
    encoded 116532 frames, 1.61 fps, 3893.75 kb/s

    MI
    General
    Complete name : ...Telefonnaya_budka_2002_KinoGadget.mp4
    Format : MPEG-4
    Format profile : Base Media
    Codec ID : isom (isom)
    File size : 2.39 GiB
    Duration : 1 h 21 min
    Overall bit rate mode : Variable
    Overall bit rate : 4 226 kb/s
    Movie name : Телефонная будка | KinoGadget
    Performer : Джоэл Шумахер
    Director : Джоэл Шумахер
    Actor : Колин Фаррелл/Кифер Сазерленд/Форест Уитакер/Рада Митчелл/Кэти Холмс/Пола Джей Паркер/Ариан Варинг Эш/Тиа Тексада/Джон Инос III/Ричард Т. Джонс/Кит Ноббс/Делл Йонт/Джеймс МакДональд/Джош Пэйс/Йорго Константин/Колин Патрик Линч
    Screenplay by : Ларри Коэн
    Producer : Джил Неттер/Дэвид Цукер/Тед Курдила
    Genre : Crime, Thriller
    ContentType : Short Film
    Recorded date : 2002
    Encoded date : UTC 2017-11-30 15: 49: 06
    Tagged date : UTC 2017-11-30 16: 06: 43
    Cover : Yes
    ContentRating : mpaa|R|400|
    LongDeion : Один телефонный звонок может изменить всю жизнь человека или даже оборвать ее. Герой фильма Стью Шеферд становится пленником телефонной будки.// Что вы сделаете, если услышите, как в телефонной будке зазвонил телефон? Скорее всего, инстинктивно поднимете трубку, хотя прекрасно знаете, что кто-то просто ошибся номером. Вот и Стью кажется, что на звонок надо обязательно ответить, а в результате он оказывается втянутым в чудовищную игру. Только положи трубку, и ты — труп, — говорит ему невидимый собеседник.
    HDVideo : Yes
    Video
    ID : 1
    Format : AVC
    Format/Info : Advanced Video Codec
    Format profile : High@L4.1
    Format settings, CABAC : Yes
    Format settings, ReFrames : 10 frames
    Codec ID : avc1
    Codec ID/Info : Advanced Video Coding
    Duration : 1 h 21 min
    Bit rate : 3 894 kb/s
    Maximum bit rate : 13.0 Mb/s
    Width : 1 280 pixels
    Height : 544 pixels
    Display aspect ratio : 2.35: 1
    Frame rate mode : Constant
    Frame rate : 23.976 (24000/1001) FPS
    Color space : YUV
    Chroma subsampling : 4: 2: 0
    Bit depth : 8 bits
    Scan type : Progressive
    Bits/(Pixel*Frame) : 0.233
    Stream size : 2.20 GiB (92%)
    Writing library : x264 core 152 r2851 ba24899
    Encoding settings : cabac=1/ref=10/deblock=1: -2: -1/analyse=0x3: 0x113/me=umh/subme=7/psy=1/psy_rd=1.00: 0.00/mixed_ref=1/me_range=32/chroma_me=1/trellis=2/8x8dct=1/cqm=0/deadzone=21, 11/fast_pskip=0/chroma_qp_offset=-2/threads=3/lookahead_threads=1/sliced_threads=0/nr=0/decimate=1/interlaced=0/bluray_compat=0/constrained_intra=0/bframes=8/b_pyramid=2/b_adapt=2/b_bias=0/direct=1/weightb=1/open_gop=0/weightp=2/keyint=250/keyint_min=25/scenecut=40/intra_refresh=0/rc_lookahead=60/rc=crf/mbtree=1/crf=19.0/qcomp=0.60/qpmin=0/qpmax=69/qpstep=4/vbv_maxrate=62500/vbv_bufsize=78125/crf_max=0.0/nal_hrd=none/filler=0/ip_ratio=1.40/aq=1: 1.00
    Encoded date : UTC 2017-11-30 15: 20: 21
    Tagged date : UTC 2017-11-30 15: 49: 57
    Audio #1
    ID : 2
    Format : AAC
    Format/Info : Advanced Audio Codec
    Format profile : LC
    Codec ID : 40
    Duration : 1 h 21 min
    Bit rate mode : Variable
    Bit rate : 160 kb/s
    Maximum bit rate : 165 kb/s
    Channel(s) : 2 channels
    Channel positions : Front: L R
    Sampling rate : 48.0 kHz
    Frame rate : 46.875 FPS (1024 spf)
    Compression mode : Lossy
    Stream size : 92.7 MiB (4%)
    Language : Russian
    Encoded date : UTC 2017-11-30 15: 24: 06
    Tagged date : UTC 2017-11-30 15: 49: 57
    Audio #2
    ID : 3
    Format : AAC
    Format/Info : Advanced Audio Codec
    Format profile : LC
    Codec ID : 40
    Duration : 1 h 21 min
    Bit rate mode : Variable
    Bit rate : 160 kb/s
    Maximum bit rate : 165 kb/s
    Channel(s) : 2 channels
    Channel positions : Front: L R
    Sampling rate : 48.0 kHz
    Frame rate : 46.875 FPS (1024 spf)
    Compression mode : Lossy
    Stream size : 92.7 MiB (4%)
    Language : English
    Encoded date : UTC 2017-11-30 15: 39: 01
    Tagged date : UTC 2017-11-30 15: 49: 57
    Text #1
    ID : 4
    Format : Timed Text
    Codec ID : tx3g
    Duration : 1 h 15 min
    Bit rate mode : Variable
    Bit rate : 216 b/s
    Stream size : 119 KiB (0%)
    Language : Russian
    Forced : No
    Encoded date : UTC 2017-11-30 15: 49: 57
    Tagged date : UTC 2017-11-30 15: 49: 57
    Text #2
    ID : 5
    Format : Timed Text
    Codec ID : tx3g
    Duration : 1 h 15 min
    Bit rate mode : Variable
    Bit rate : 135 b/s
    Stream size : 74.4 KiB (0%)
    Language : English
    Forced : No
    Encoded date : UTC 2017-11-30 15: 49: 57
    Tagged date : UTC 2017-11-30 15: 49: 57
    Menu
    00: 00: 00.000 : The Last Phone Booth
    00: 03: 42.973 : The Publicist
    00: 08: 58.455 : A Free Pizza
    00: 10: 20.370 : Pam
    00: 11: 45.955 : The Caller
    00: 14: 05.595 : Exposed
    00: 17: 34.387 : Kelly
    00: 21: 19.320 : Don;t Hang Up
    00: 23: 22.359 : The Others
    00: 25: 01.417 : Leon;s Girls
    00: 29: 00.948 : Guilty
    00: 32: 00.627 : The Cops
    00: 34: 57.762 : Captain Ramey
    00: 39: 19.440 : The Center of Attention
    00: 43: 10.296 : The Cell Phone
    00: 45: 54.502 : She;s Not My Wife
    00: 47: 50.534 : The Perfect Violation
    00: 51: 44.059 : Hung Up
    00: 54: 09.621 : The Odds Are Even
    00: 56: 35.767 : Kelly or Pam?
    00: 58: 09.486 : A Sniper Situation
    01: 00: 58.238 : Trust Is the Key
    01: 03: 53.204 : A Chance for Redemption
    01: 08: 50.418 : The Man in 604
    01: 11: 06.095 : A Familiar Face
    01: 12: 30.555 : You;ll Be Hearing From Me
    01: 14: 06.067 : A Ringing Phone
    01: 15: 02.456 : End Titles

    Скриншоты


    Данный рип предназначен для просмотра на мобильных гаджетах с поддержкой формата mp4

    Онлайн видео Телефонная будка


    Размер скачиваемого торрента: 2.39 GB (2567348020 Bytes)

    Телефонная будка/Phone Booth (2002) BDRip 720p от KinoGadget | iPad | D
    загрузка...
    Рейтинг →
     (голосов: 1, оценка 3/5, голосовать можно 1 раз )

    Другие торренты по теме:

  • Телефонная будка / Phone booth (2002) HDRip-AVC
  • Телефонная будка / Phone booth (2002) BDRip-AVC | D
  • Телефонная будка / Phone Booth (2002) BDRip 720p | D скачать через торрент бесплатно
  • Телефонная будка / Phone Booth (2002) BDRip 720p от ivandubskoj | D, P, A
  • Телефонная будка / Phone booth (2002) HDRip-AVC от ExKinoRay | А


    • Комментарии (0):

      Информация

      Информация

        Посетители, находящиеся в группе Гости, не могут оставлять комментарии в данной новости.

        ↓ Меню



        ↓ Опрос

        А Вы добавили сайт в закладки?
        Да
        Не


        Top 10 за месяц (Фильмы)