.
Авторизация | Регистрация
Хочешь лучшие торренты? Добавь свой email!
Добавить
» » В гостях у Элис / Home Again (2017) BDRip 1080p от ExKinoRay | iTunes скачать торрент бесплатно




    В гостях у Элис / Home Again (2017) BDRip 1080p от ExKinoRay | iTunes скачать торрент бесплатно

    Опубликовал: Админ | Дата: 1-12-2017, 11:00 | Просмотров: 0



    Детально о кино
    Русское название: В гостях у Элис
    Русское название в мировом прокате: Home Again
    Создали в: 2017
    Категория жанра: Драма, мелодрама, комедия
    Главный режиссер: Холли Мейерс-Шайер

    Актеры
    Риз Уизерспун, Майкл Шин, Нат Вулф, Лэйк Белл, Пико Александр, Кэндис Берген, Лола Флэнери, Джон Рудницкий, Кристин Вудс, Рейд Скотт
    О фильме:
    Жизнь матери-одиночки из Лос-Анджелеса неожиданно меняется, когда она разрешает трем парням пожить у нее.

    Снималось в: США
    Киностудия: Black Bicycle Entertainment
    Время просмотра: 01: 37: 15
    Перевод текста: Дублированный | iTunes
    Файл
    Качество фильма: BDRip 1080p
    Информация о видео: MPEG-4 AVC, 1920x1036, 13.7 Mbit/s, 23.976 fps
    Информация о звуке:
    Информация о звуке #01: 48 kHz, AC3, 5.1, 384 Kbps | Дублированный | iTunes | RUS|
    Информация о звуке #02: 48 kHz, AC3, 5.1, 640 Kbps | Оригинал | ENG|
    Субтитры: Английские

    MI
    General
    Unique ID : 233821050102021303849052475640979955870 (0xAFE84BD3E42E27FE9C7A21770AFCA09E)
    Complete name : G: VideoSSDHome.Again.2017.BDRip.1080p.ExKinoRay.mkv
    Format : Matroska
    Format version : Version 4/Version 2
    File size : 10.0 GiB
    Duration : 1 h 37 min
    Overall bit rate : 14.8 Mb/s
    Encoded date : UTC 2017-11-30 16: 20: 55
    Writing application : mkvmerge v17.0.0 (;Be Ur Friend;) 64-bit
    Writing library : libebml v1.3.5 + libmatroska v1.4.8
    Video
    ID : 1
    Format : AVC
    Format/Info : Advanced Video Codec
    Format profile : High@L4.1
    Format settings : CABAC/4 Ref Frames
    Format settings, CABAC : Yes
    Format settings, RefFrames : 4 frames
    Codec ID : V_MPEG4/ISO/AVC
    Duration : 1 h 37 min
    Bit rate : 13.7 Mb/s
    Width : 1 920 pixels
    Height : 1 036 pixels
    Display aspect ratio : 1.85: 1
    Frame rate mode : Constant
    Frame rate : 23.976 (24000/1001) FPS
    Color space : YUV
    Chroma subsampling : 4: 2: 0
    Bit depth : 8 bits
    Scan type : Progressive
    Bits/(Pixel*Frame) : 0.288
    Stream size : 9.34 GiB (93%)
    Writing library : x264 core 142 r2431+42 c69a006 tMod 8-bit@4: 2: 0 X86_64
    Encoding settings : cabac=1/ref=4/deblock=1: -3: -3/analyse=0x3: 0x113/me=umh/subme=10/psy=1/fade_compensate=0.00/psy_rd=1.00: 0.05/mixed_ref=1/me_range=48/chroma_me=1/trellis=2/8x8dct=1/cqm=0/deadzone=21, 11/fast_pskip=0/chroma_qp_offset=-2/threads=12/lookahead_threads=2/sliced_threads=0/nr=0/decimate=1/interlaced=0/bluray_compat=0/constrained_intra=0/fgo=0/bframes=8/b_pyramid=2/b_adapt=2/b_bias=0/direct=3/weightb=1/open_gop=0/weightp=2/keyint=250/keyint_min=23/scenecut=40/intra_refresh=0/rc_lookahead=40/rc=crf/mbtree=0/crf=19.0000/qcomp=0.60/qpmin=0: 0: 0/qpmax=69: 69: 69/qpstep=4/vbv_maxrate=50000/vbv_bufsize=45000/crf_max=0.0/nal_hrd=none/filler=0/ip_ratio=1.40/pb_ratio=1.30/aq=3: 1.00/aq-sensitivity=10.00/aq-factor=1.00: 1.00: 1.00/aq2=0/aq3=0
    Language : English
    Default : Yes
    Forced : No
    Color range : Limited
    Matrix coefficients : BT.709
    Audio #1
    ID : 2
    Format : AC-3
    Format/Info : Audio Coding 3
    Format settings, Endianness : Big
    Codec ID : A_AC3
    Duration : 1 h 37 min
    Bit rate mode : Constant
    Bit rate : 384 kb/s
    Channel(s) : 6 channels
    Channel positions : Front: L C R, Side: L R, LFE
    Sampling rate : 48.0 kHz
    Frame rate : 31.250 FPS (1536 SPF)
    Bit depth : 16 bits
    Compression mode : Lossy
    Stream size : 267 MiB (3%)
    Title : iTunes
    Language : Russian
    Service kind : Complete Main
    Default : Yes
    Forced : No
    Audio #2
    ID : 3
    Format : AC-3
    Format/Info : Audio Coding 3
    Format settings, Endianness : Big
    Codec ID : A_AC3
    Duration : 1 h 37 min
    Bit rate mode : Constant
    Bit rate : 640 kb/s
    Channel(s) : 6 channels
    Channel positions : Front: L C R, Side: L R, LFE
    Sampling rate : 48.0 kHz
    Frame rate : 31.250 FPS (1536 SPF)
    Bit depth : 16 bits
    Compression mode : Lossy
    Stream size : 445 MiB (4%)
    Title : Original
    Language : English
    Service kind : Complete Main
    Default : No
    Forced : No
    Text
    ID : 4
    Format : UTF-8
    Codec ID : S_TEXT/UTF8
    Codec ID/Info : UTF-8 Plain Text
    Duration : 1 h 31 min
    Bit rate : 105 b/s
    Count of elements : 2122
    Stream size : 70.8 KiB (0%)
    Title : Full
    Language : English
    Default : No
    Forced : No
    Menu
    00: 00: 00.000 : en: 00: 00: 00.000
    00: 06: 00.110 : en: 00: 06: 00.110
    00: 11: 00.285 : en: 00: 11: 00.285
    00: 16: 54.222 : en: 00: 16: 54.222
    00: 20: 11.210 : en: 00: 20: 11.210
    00: 25: 08.132 : en: 00: 25: 08.132
    00: 29: 37.275 : en: 00: 29: 37.275
    00: 35: 04.352 : en: 00: 35: 04.352
    00: 40: 23.087 : en: 00: 40: 23.087
    00: 46: 32.915 : en: 00: 46: 32.915
    00: 51: 47.354 : en: 00: 51: 47.354
    00: 54: 48.160 : en: 00: 54: 48.160
    00: 59: 20.140 : en: 00: 59: 20.140
    01: 03: 16.209 : en: 01: 03: 16.209
    01: 09: 23.284 : en: 01: 09: 23.284
    01: 15: 03.124 : en: 01: 15: 03.124
    01: 17: 19.760 : en: 01: 17: 19.760
    01: 21: 08.697 : en: 01: 21: 08.697
    01: 27: 51.308 : en: 01: 27: 51.308
    01: 32: 42.098 : en: 01: 32: 42.098

    Релиз подготовил: Автор релиза:
    Подпишись на меня, кликни по картинке :


    Онлайн видео В гостях у Элис


    Размер скачиваемого торрента: 10.03 GB (10773199520 Bytes)

    В гостях у Элис/Home Again (2017) BDRip 1080p от ExKinoRay | iTunes
    загрузка...
    Рейтинг →
     (голосов: 1, оценка 5/5, голосовать можно 1 раз )

    Другие торренты по теме:

  • В гостях у Элис / Home Again (2017) BDRip-AVC от HELLYWOOD | iTunes
  • В гостях у Элис / Home Again (2017) BDRip-AVC от HELLYWOOD | iTunes
  • В гостях у Элис / Home Again (2017) BDRip от Seven | iTunes
  • В гостях у Элис / Home Again (2017) HDRip от MegaPeer | iTunes
  • В гостях у Элис / Home Again (2017) WEB-DL 1080p от ExKinoRay | iTunes
  • В гостях у Элис / Home Again (2017) HDRip от Scarabey | iTunes


    • Комментарии (0):

      Информация

      Информация

        Посетители, находящиеся в группе Гости, не могут оставлять комментарии в данной новости.

        ↓ Меню



        ↓ Опрос

        А Вы добавили сайт в закладки?
        Да
        Не


        Top 10 за месяц (Фильмы)