.
Авторизация | Регистрация
Хочешь лучшие торренты? Добавь свой email!
Добавить




Таврия (1959) DVDRip от New-Team скачать торрент бесплатно

Опубликовал: Админ | Дата: 30-11-2017, 11:00 | Просмотров: 0



Мы В КОНТАКТЕ

Снималось в: СССР
Создали в: К/ст. им. Довженко
Категория жанра: драма
Создали в: 1959
Время просмотра: 01: 26: 11
Перевод текста: Не требуется
Субтитры подготовлены: нет
Оригинальная аудиодорожка: русский
Главный режиссер: Юрий Лысенко

Актеры

Юрий Максимов, Ольга Лысенко, Лариса Шепитько, Николай Воронин, Иван Рыжов, Дмитрий Капка, Андрей Иванченко, Дмитрий Милютенко, Антон Король, Олег Жаков, Артем Тарский, Фёдор Ищенко, Дмитрий Костенко, А. Черненко (II), Коля Батуревич, Наталья Гицерот, Лев Перфилов, Николай Талюра, Мария Капнист, Александр Гумбург, Алексей Максимов, Н. Назарен, Василий Козенко...
Об актёрах подробней
Описание:
По одноименному роману Олеся Гончара.
Юг Украины, степная империя Фальцфейнов. По-разному складываются судьбы двух подруг Вусти (Ольга Лысенко) и Ганны (Лариса Шепитько). Вустя полюбила революционера Леонида Бронникова и сама решила идти по его пути. Мечта Ганны - стать богатой. Она влюбляется в сына миллионеров Фальцфейнов. Но не удаётся горничной стать госпожой: помещица Софья Фальцфейн выгоняет Ганну из имения. Тяжёлые условия труда на работах в панских экономиях рождают солидарность и крепкую дружбу между русскими и украинцами. Они восстают против своей угнетательницы помещицы Фальцфейн.



Источник: DVD5 R5
Качество фильма видео: DVDRip
Тип видео видео: AVI
Информация о видео: 640х480 (4: 3), 25 fps, XviD ~ 1098 kbps avg, 0.143 bit/pixel
Информация о звуке: 48 kHz, MP3 2.0, 128 kbps
Раздача от:
MediaInfo

Общее
Полное имя : Tavriya.1959.DVDRip-745_New-team_by_AVP_Studio.avi
Формат : AVI
Формат/Информация : Audio Video Interleave
Размер файла : 762 Мбайт
Продолжительность : 1 ч. 26 м.
Общий поток : 1236 Кбит/сек
Программа кодирования : VirtualDubMod 1.5.10.3 | www.virtualdub-fr.org || (build 2550/release)
Библиотека кодирования : VirtualDubMod build 2550/release
Видео
Идентификатор : 0
Формат : MPEG-4 Visual
Профиль формата : Advanced Simple@L5
Настройки формата : BVOP1/Custom Matrix
Параметр BVOP формата : 1
Параметр QPel формата : Нет
Параметр GMC формата : Без точки перехода
Параметр матрицы формата : Выборочная
Идентификатор кодека : XVID
Идентификатор кодека/Подсказка : XviD
Продолжительность : 1 ч. 26 м.
Битрейт : 1098 Кбит/сек
Ширина : 640 пикселей
Высота : 480 пикселей
Соотношение сторон : 4: 3
Частота кадров : 25, 000 кадров/сек
Цветовое пространство : YUV
Субдискретизация насыщенности : 4: 2: 0
Битовая глубина : 8 бит
Тип развёртки : Прогрессивная
Метод сжатия : С потерями
Бит/(Пиксели*Кадры) : 0.143
Размер потока : 677 Мбайт (89%)
Библиотека кодирования : XviD 73
Аудио
Идентификатор : 1
Формат : MPEG Audio
Версия формата : Version 1
Профиль формата : Layer 3
Идентификатор кодека : 55
Идентификатор кодека/Подсказка : MP3
Продолжительность : 1 ч. 26 м.
Вид битрейта : Постоянный
Битрейт : 128 Кбит/сек
Каналы : 2 канала
Частота : 48, 0 КГц
Частота кадров : 41, 667 кадра/сек (1152 SPF)
Метод сжатия : С потерями
Размер потока : 78, 9 Мбайт (10%)
Выравнивание : Соединение по промежуткам
Продолжительность промежутка : 40 мс. (1, 00 видеокадр)
Время предзагрузки промежутка : 504 мс.
Библиотека кодирования : LAME3.99r
Залил: AVPStudio

Онлайн видео Таврия (1959) DVDRip от New


Размер скачиваемого торрента: 761.71 MB (798715904 Bytes)


Таврия (1959) DVDRip от New-Team
загрузка...
Рейтинг →
 (голосов: 1, оценка 4/5, голосовать можно 1 раз )

Другие торренты по теме:



    Комментарии (0):

    Информация

    Информация

      Посетители, находящиеся в группе Гости, не могут оставлять комментарии в данной новости.

      ↓ Меню



      ↓ Опрос

      А Вы добавили сайт в закладки?
      Да
      Не


      Top 10 за месяц (Фильмы)