.
Авторизация | Регистрация
Хочешь лучшие торренты? Добавь свой email!
Добавить
» » Голос монстра / A Monster Calls (2016) DVD5 скачать торрент бесплатно




    Голос монстра / A Monster Calls (2016) DVD5 скачать торрент бесплатно

    Опубликовал: Админ | Дата: 30-11-2017, 11:00 | Просмотров: 0


    Нечто невероятное изменит вас навсегда

    Создали в: 2016
    Создали в: Великобритания, Испания, США/Focus Features, Participant Media, River Road Entertainment
    Категория жанра: Фэнтези, драма
    Главный режиссер: Хуан Антонио Байона
    Продюсеры: Белен Атьенса, Альваро Аугустин, Жислен Баруа
    Актеры: Льюис МакДугалл, Сигурни Уивер, Фелисити Джонс, Тоби Кеббелл, Бен Моор, Джеймс Мелвилл, Оливер Стир, Доминик Бойл, Дженнифер Лим, Макс Габбей

    Описание фильма

    Поражающая воображение история о мальчике Конноре и монстре из его снов. Когда Коннору особенно тяжело, происходит нечто невероятное — старое тисовое дерево за окном оживает и превращается в громадное чудовище. По ночам монстр рассказывает Коннору истории, которые помогут ему понять, что даже когда весь мир рушится, можно найти в себе силы и не отчаиваться.
    Перевод текста: Дублированный
    Субтитры: Английские, русские
    Дата мировой премьеры: 9 сентября 2016
    Дата российской премьеры: 2 февраля 2017, Вольга
    Дата выхода DVD релиза: 13 ноября 2017, НД Плэй
    Время просмотра: 01: 48: 10
    Качество фильма видео: DVD5
    Информация о видео: MPEG-2, 720x480@853x480 (NTSC 16: 9), ~5000 Кбит/сек
    Информация о звуке 1: AC3 5.1, 448 Кбит/сек Английский - оригинал
    Информация о звуке 2: AC3 5.1, 448 Кбит/сек Русский - дублированный
    DVDInfo:
    Title: A Monster Calls (2016) DVD5
    Size: 4.22 Gb ( 4 427 090, 00 KBytes ) - DVD-5
    Enabled regions: 1, 2, 3, 4, 5, 6, 7, 8
    VTS_01 :
    Play Length: 01: 48: 10
    Video: NTSC 16: 9 (720x480) VBR, Auto Letterboxed
    Audio:
    English (Dolby AC3, 6 ch)
    Russian (Dolby AC3, 6 ch)
    Subtitles:
    English
    Russian
    * Menus Information *
    VIDEO_TS Menu
    Video:
    NTSC 16: 9 (720x480) VBR
    Auto PanScan
    English Language Unit :
    Title Menu
    VTS_01 Menu
    Video:
    NTSC 16: 9 (720x480) VBR
    Auto Letterboxed
    Audio:
    Not specified (Dolby AC3, 2 ch)
    English Language Unit :
    Root Menu
    Subpicture Menu
    Angle menu
    Chapter (PTT) Menu
    MediaInfo:
    Видео
    Идентификатор : 224 (0xE0)
    Формат : MPEG Video
    Версия формата : Version 2
    Профиль формата : Main@Main
    Настройки формата : CustomMatrix/BVOP
    Параметр BVOP формата : Да
    Параметр матрицы формата : Выборочная
    Параметр GOP формата : M=3, N=12
    Продолжительность : 23 м. 52 с.
    Вид битрейта : Переменный
    Битрейт : 4980 Кбит/сек
    Максимальный битрейт : 7428 Кбит/сек
    Ширина : 720 пикселей
    Высота : 480 пикселей
    Соотношение сторон : 16: 9
    Частота кадров : 23, 976 (24000/1001) кадра/сек
    Цветовое пространство : YUV
    Субдискретизация насыщенности : 4: 2: 0
    Битовая глубина : 8 бит
    Тип развёртки : Прогрессивная
    Порядок развёртки : 2: 3 Pulldown
    Метод сжатия : С потерями
    Бит/(Пиксели*Кадры) : 0.601
    Временной код первого кадра : 00: 26: 28: 18
    Оригинал временного кода : Group of pictures t_head
    GOP, открыто/закрыто : Открыто
    Размер потока : 850 Мбайт (83%)
    Аудио #1
    Идентификатор : 189 (0xBD)-128 (0x80)
    Формат : AC-3
    Формат/Информация : Audio Coding 3
    Параметр Endianness формата : Big
    Режим смешивания : DVD-Video
    Продолжительность : 23 м. 52 с.
    Вид битрейта : Постоянный
    Битрейт : 448 Кбит/сек
    Каналы : 6 каналов
    Расположение каналов : Front: L C R, Side: L R, LFE
    Частота : 48, 0 КГц
    Частота кадров : 31, 250 кадров/сек (1536 SPF)
    Битовая глубина : 16 бит
    Метод сжатия : С потерями
    Задержка видео : -431 мс.
    Размер потока : 76, 5 Мбайт (7%)
    ServiceKind : Complete Main
    Аудио #2
    Идентификатор : 189 (0xBD)-129 (0x81)
    Формат : AC-3
    Формат/Информация : Audio Coding 3
    Параметр Endianness формата : Big
    Режим смешивания : DVD-Video
    Продолжительность : 23 м. 52 с.
    Вид битрейта : Постоянный
    Битрейт : 448 Кбит/сек
    Каналы : 6 каналов
    Расположение каналов : Front: L C R, Side: L R, LFE
    Частота : 48, 0 КГц
    Частота кадров : 31, 250 кадров/сек (1536 SPF)
    Битовая глубина : 16 бит
    Метод сжатия : С потерями
    Задержка видео : -431 мс.
    Размер потока : 76, 5 Мбайт (7%)
    ServiceKind : Complete Main
    Текст #1
    Идентификатор : 189 (0xBD)-32 (0x20)
    Формат : RLE
    Формат/Информация : Run-length encoding
    Режим смешивания : DVD-Video
    Продолжительность : 23 м. 49 с.
    Задержка видео : 567 мс.
    Текст #2
    Идентификатор : 189 (0xBD)-33 (0x21)
    Формат : RLE
    Формат/Информация : Run-length encoding
    Режим смешивания : DVD-Video
    Меню
    Доп. информация:
    Исходник: Голос монстра/A Monster Calls (2016) DVD9 | D, A | Custom
    Удалены: доп. материалы, авторская, описательная и с комментариями звуковые дорожки (в меню кнопки затёрты).
    Команды диска переписаны заново, оставлен один VTS.
    Видео сжато на 17, 8%
    Меню: статичное, недействующие кнопки затерты и закрыты.
    Обработка и сжатие: DVD ReMake Pro + DVD Rebuilder + CCE SP2 7 проходов + Работа с меню (Adobe PhotoShop и MuxMan).
    Скриншоты меню:
    Скриншоты:

    Залил: Саша 1992

    Онлайн видео Голос монстра


    Размер скачиваемого торрента: 4.22 GB (4533340160 Bytes)

    Голос монстра/A Monster Calls (2016) DVD5
    загрузка...
    Рейтинг →
     (голосов: 1, оценка 4/5, голосовать можно 1 раз )

    Другие торренты по теме:

  • Голос монстра / A Monster Calls (2016) DVDScr | L
  • Голос монстра / A Monster Calls (2016) BDRip от MegaPeer | L1
  • Голос монстра / A Monster Calls (2016) BDRip 1080p от ExKinoRay | L1
  • Голос монстра / A Monster Calls (2016) BDRip 720p | Line
  • Голос монстра / A Monster Calls (2016) BDRip от ExKinoRay | Line
  • Голос монстра / A Monster Calls (2016) HDRip от Scarabey | Line
  • Голос монстра / A Monster Calls (2016) BDRip-AVC от OlLanDGroup | Line
  • Голос монстра / A Monster Calls (2016) BDRip | Line


    • Комментарии (0):

      Информация

      Информация

        Посетители, находящиеся в группе Гости, не могут оставлять комментарии в данной новости.

        ↓ Меню



        ↓ Опрос

        А Вы добавили сайт в закладки?
        Да
        Не


        Top 10 за месяц (Фильмы)