.
Авторизация | Регистрация
Хочешь лучшие торренты? Добавь свой email!
Добавить
» » Инсианг / Insiang (1976) BDRip 720p | L1 скачать торрент бесплатно




    Инсианг / Insiang (1976) BDRip 720p | L1 скачать торрент бесплатно

    Опубликовал: Админ | Дата: 30-11-2017, 11:00 | Просмотров: 0



    Детально о кино
    Русское название: Инсианг
    Русское название в мировом прокате: Insiang
    Создали в: 1976
    Категория жанра: драма
    Главный режиссер: Лино Брока

    Актеры
    Ильда Коронель, Мона Лиза, Руэль Верналь, Рес Кортес, Марлон Рамирез, Нина Лоренсо, Карпи Астуриас, Данило Посадас, Эстрелла Антонио, Томми Яп

    Описание фильма
    Действие фильма происходит в трущобах филиппинской Манилы. Красивую девушку насилует любовник её матери, и девушка придумывает хитрый план мести.

    Снималось в: Филиппины
    Время просмотра: 01: 34: 29
    Перевод текста: Любительский (одноголосый закадровый) А. Яковлев
    Субтитры: английские
    Оригинальная аудиодорожка: тагальский
    Файл
    Качество фильма: BDRip 720p
    Информация о видео: AVC/986x720/4: 3/23.976 fps/7000 Kbps/High@L4.1
    Информация о звуке 1: Rus: AC3/48.0 KHz/1.0/192kbps/VO/А. Яковлев
    Информация о звуке 2: Rus: FLAC/48.0 KHz/1.0/575 kbps/24 bit/VO/А. Яковлев
    Информация о звуке 3: Tag: FLAC/48.0 KHz/1.0/549 kbps/24 bit
    Формат субтитров: softsub (SRT)
    Скриншоты

    MediaInfo
    Общее
    Уникальный идентификатор : 230080131284547217526682463943128922583 (0xAD17D24A3748CB27BB8588E1EE4E39D7)
    Полное имя : Insiang.1976.Criterion.Collection.BDRip.720p.mkv
    Формат : Matroska
    Версия формата : Version 4/Version 2
    Размер файла : 5, 49 Гбайт
    Продолжительность : 1 ч. 34 м.
    Режим общего битрейта : Переменный
    Общий поток : 8318 Кбит/сек
    Название фильма : Insiang.1976.Criterion.Collection.BDRip.720p-porvaliparus
    Дата кодирования : UTC 2017-11-29 00: 06: 20
    Программа кодирования : mkvmerge v18.0.0 (;Apricity;) 64-bit
    Библиотека кодирования : libebml v1.3.5 + libmatroska v1.4.8
    Видео
    Идентификатор : 1
    Формат : AVC
    Формат/Информация : Advanced Video Codec
    Профиль формата : High@L4.1
    Настройки формата : CABAC/11 Ref Frames
    Параметр CABAC формата : Да
    Параметр RefFrames формата : 11 кадров
    Идентификатор кодека : V_MPEG4/ISO/AVC
    Продолжительность : 1 ч. 34 м.
    Битрейт : 7000 Кбит/сек
    Ширина : 986 пикселей
    Высота : 720 пикселей
    Соотношение сторон : 4: 3
    Режим частоты кадров : Постоянный
    Частота кадров : 23, 976 (24000/1001) кадра/сек
    Цветовое пространство : YUV
    Субдискретизация насыщенности : 4: 2: 0
    Битовая глубина : 8 бит
    Тип развёртки : Прогрессивная
    Бит/(Пиксели*Кадры) : 0.411
    Размер потока : 4, 62 Гбайт (84%)
    Заголовок : Insiang.1976.Criterion.Collection.BDRip.720p
    Библиотека кодирования : x264 core 152 r2851 ba24899
    Настройки программы : cabac=1/ref=11/deblock=1: -3: -3/analyse=0x3: 0x133/me=umh/subme=11/psy=1/psy_rd=1.00: 0.10/mixed_ref=1/me_range=32/chroma_me=1/trellis=2/8x8dct=1/cqm=0/deadzone=21, 11/fast_pskip=0/chroma_qp_offset=-3/threads=12/lookahead_threads=3/sliced_threads=0/nr=0/decimate=1/interlaced=0/bluray_compat=0/constrained_intra=0/bframes=10/b_pyramid=2/b_adapt=2/b_bias=0/direct=3/weightb=1/open_gop=0/weightp=2/keyint=250/keyint_min=23/scenecut=40/intra_refresh=0/rc_lookahead=40/rc=2pass/mbtree=0/bitrate=7000/ratetol=1.0/qcomp=0.60/qpmin=0/qpmax=69/qpstep=4/cplxblur=20.0/qblur=0.5/vbv_maxrate=50000/vbv_bufsize=62500/nal_hrd=none/filler=0/ip_ratio=1.40/pb_ratio=1.30/aq=1: 0.80
    Default : Да
    Forced : Нет
    Аудио #1
    Идентификатор : 2
    Формат : AC-3
    Формат/Информация : Audio Coding 3
    Идентификатор кодека : A_AC3
    Продолжительность : 1 ч. 34 м.
    Вид битрейта : Постоянный
    Битрейт : 192 Кбит/сек
    Каналы : 1 канал
    Расположение каналов : Front: C
    Частота : 48, 0 КГц
    Частота кадров : 31, 250 кадров/сек (1536 SPF)
    Битовая глубина : 16 бит
    Метод сжатия : С потерями
    Размер потока : 130 Мбайт (2%)
    Заголовок : VO А. Яковлев
    Язык : Russian
    Default : Да
    Forced : Нет
    Аудио #2
    Идентификатор : 3
    Формат : FLAC
    Формат/Информация : Free Lossless Audio Codec
    Идентификатор кодека : A_FLAC
    Продолжительность : 1 ч. 34 м.
    Вид битрейта : Переменный
    Битрейт : 575 Кбит/сек
    Каналы : 1 канал
    Расположение каналов : Front: C
    Частота : 48, 0 КГц
    Частота кадров : 11, 719 кадров/сек (4096 SPF)
    Битовая глубина : 24 бит
    Размер потока : 389 Мбайт (7%)
    Заголовок : VO А. Яковлев
    Библиотека кодирования : libFLAC 20080709 (UTC 2008-07-09)
    Язык : Russian
    Default : Нет
    Forced : Нет
    Аудио #3
    Идентификатор : 4
    Формат : FLAC
    Формат/Информация : Free Lossless Audio Codec
    Идентификатор кодека : A_FLAC
    Продолжительность : 1 ч. 34 м.
    Вид битрейта : Переменный
    Битрейт : 549 Кбит/сек
    Каналы : 1 канал
    Расположение каналов : Front: C
    Частота : 48, 0 КГц
    Частота кадров : 11, 719 кадров/сек (4096 SPF)
    Битовая глубина : 24 бит
    Размер потока : 371 Мбайт (7%)
    Библиотека кодирования : libFLAC 20080709 (UTC 2008-07-09)
    Язык : Tagalog
    Default : Нет
    Forced : Нет
    Текст
    Идентификатор : 5
    Формат : UTF-8
    Идентификатор кодека : S_TEXT/UTF8
    Идентификатор кодека/Информация : UTF-8 Plain Text
    Продолжительность : 1 ч. 26 м.
    Битрейт : 42 бит/сек
    ElementCount : 935
    Размер потока : 26, 9 Кбайт (0%)
    Язык : English
    Default : Нет
    Forced : Нет
    Меню
    00: 00: 00.000 : en: 00: 00: 00.000
    00: 05: 35.043 : en: 00: 05: 35.043
    00: 11: 52.670 : en: 00: 11: 52.670
    00: 19: 41.055 : en: 00: 19: 41.055
    00: 24: 17.373 : en: 00: 24: 17.373
    00: 29: 19.841 : en: 00: 29: 19.841
    00: 34: 28.149 : en: 00: 34: 28.149
    00: 40: 22.837 : en: 00: 40: 22.837
    00: 47: 03.779 : en: 00: 47: 03.779
    00: 52: 07.374 : en: 00: 52: 07.374
    00: 57: 17.351 : en: 00: 57: 17.351
    01: 05: 30.385 : en: 01: 05: 30.385
    01: 15: 39.618 : en: 01: 15: 39.618
    01: 19: 06.325 : en: 01: 19: 06.325
    01: 22: 03.919 : en: 01: 22: 03.919
    01: 27: 28.034 : en: 01: 27: 28.034
    01: 29: 13.890 : en: 01: 29: 13.890

    Размер скачиваемого торрента: 5.49 GB (5894749196 Bytes)

    Инсианг/Insiang (1976) BDRip 720p | L1
    загрузка...
    Рейтинг →
     (голосов: 1, оценка 3/5, голосовать можно 1 раз )

    Другие торренты по теме:



      Комментарии (0):

      Информация

      Информация

        Посетители, находящиеся в группе Гости, не могут оставлять комментарии в данной новости.

        ↓ Меню



        ↓ Опрос

        А Вы добавили сайт в закладки?
        Да
        Не


        Top 10 за месяц (Фильмы)