.
Авторизация | Регистрация
Хочешь лучшие торренты? Добавь свой email!
Добавить
» » Меч короля Артура / King Arthur: Legend of the Sword (2017) UHD BDRemux 2160p от ExKinoRay | 4K | HDR | D, A | Лицензия скачать торрент бесплатно




    Меч короля Артура / King Arthur: Legend of the Sword (2017) UHD BDRemux 2160p от ExKinoRay | 4K | HDR | D, A | Лицензия скачать торрент бесплатно

    Опубликовал: Админ | Дата: 30-11-2017, 11:00 | Просмотров: 0



    Детально о кино
    Русское название: Меч короля Артура
    Русское название в мировом прокате: King Arthur: Legend of the Sword
    Создали в: 2017
    Категория жанра: Фэнтези, боевик, драма, приключения
    Главный режиссер: Гай Ричи

    Актеры
    Чарли Ханнэм, Астрид Берже-Фрисби, Джуд Лоу, Джимон Хонсу, Эрик Бана, Эйден Гиллен, Фредди Фокс, Крэйг МакГинли, Том Ву, Кингсли Бен-Адир
    О фильме:
    Молодой Артур живёт на задворках Лондиниума вместе со своей бандой. Он и понятия не имел о своём королевском происхождении, пока однажды не взял в руки меч Эскалибур. Меч начинает менять Артура. В результате он присоединяется к сопротивлению и таинственной молодой девушке по имени Гвиневра. Ему предстоит научиться понимать магическое оружие, которым он овладел, столкнуться со своими собственными демонами и объединить народ в борьбе против диктатора Вортигерна, убившего его родителей и завладевшего короной.

    Снималось в: США
    Киностудия: Safehouse Pictures, Village Roadshow Pictures, Warner Bros. Pictures, Weed Road Pictures, Wigram Productions
    Время просмотра: 02: 06: 13
    Перевод текста(ы):
    #1: Дублированный | Лицензия
    #2: Авторский | Дмитрий Есарев
    Файл
    Качество фильма: BDRemux 2160p
    Информация о видео: MPEG-H HEVC HDR Video, 3840x2160, 50.0 Mbit/s, 23.976 fps
    Информация о звуке:
    Информация о звуке #01: 48 kHz, AC3, 5.1, 448 Kbps | Дублированный | RUS|
    Информация о звуке #02: 48 kHz, DTS-HD MA, 7.1, 3652 Kbps | Авторский | RUS|
    Информация о звуке #03: 48 kHz, TrueHD, 7.1, 3748 Kbps | Оригинал | ENG|
    Информация о звуке #04: 48 kHz, AC3, 5.1, 448 Kbps | Оригинал | ENG|
    Субтитры: Русские (forced, full), английские

    MI
    General
    Unique ID : 196540246390346423904500714909076623994 (0x93DC464AE0A9BDC5A7F8F84F0EC1127A)
    Complete name : G: VideoSSDKing.Arthur.Legend.of.the.Sword.2017.UHD.BluRay.BDREMUX.2160p.4K.UltraHD.HEVC.HDR.ExKinoRay.mkv
    Format : Matroska
    Format version : Version 4/Version 2
    File size : 52.8 GiB
    Duration : 2 h 6 min
    Overall bit rate mode : Variable
    Overall bit rate : 59.9 Mb/s
    Movie name : King.Arthur.Legend.of.the.Sword.2017.ExKinoRay
    Encoded date : UTC 2017-11-29 11: 00: 03
    Writing application : mkvmerge v17.0.0 (;Be Ur Friend;) 64-bit
    Writing library : libebml v1.3.5 + libmatroska v1.4.8
    Video
    ID : 1
    Format : HEVC
    Format/Info : High Efficiency Video Coding
    Format profile : Main 10@L5.1@High
    Codec ID : V_MPEGH/ISO/HEVC
    Duration : 2 h 6 min
    Bit rate : 50.0 Mb/s
    Width : 3 840 pixels
    Height : 2 160 pixels
    Display aspect ratio : 16: 9
    Frame rate mode : Constant
    Frame rate : 23.976 (24000/1001) FPS
    Color space : YUV
    Chroma subsampling : 4: 2: 0 (Type 2)
    Bit depth : 10 bits
    Bits/(Pixel*Frame) : 0.251
    Stream size : 44.1 GiB (83%)
    Language : English
    Default : Yes
    Forced : No
    Color range : Limited
    Color primaries : BT.2020
    Transfer characteristics : PQ
    Matrix coefficients : BT.2020 non-constant
    Mastering display color pri : R: x=0.680000 y=0.320000, G: x=0.265000 y=0.690000, B: x=0.150000 y=0.060000, White point: x=0.312700 y=0.329000
    Mastering display luminance : min: 0.0050 cd/m2, max: 4000.0000 cd/m2
    Maximum Content Light Level : 2278 cd/m2
    Maximum Frame-Average Light : 195 cd/m2
    Audio #1
    ID : 2
    Format : AC-3
    Format/Info : Audio Coding 3
    Format settings, Endianness : Big
    Codec ID : A_AC3
    Duration : 2 h 6 min
    Bit rate mode : Constant
    Bit rate : 448 kb/s
    Channel(s) : 6 channels
    Channel positions : Front: L C R, Side: L R, LFE
    Sampling rate : 48.0 kHz
    Frame rate : 31.250 FPS (1536 SPF)
    Bit depth : 16 bits
    Compression mode : Lossy
    Stream size : 404 MiB (1%)
    Title : Dub License
    Language : Russian
    Service kind : Complete Main
    Default : Yes
    Forced : No
    Audio #2
    ID : 3
    Format : DTS
    Format/Info : Digital Theater Systems
    Format profile : MA/Core
    Mode : 16
    Format settings, Endianness : Big
    Codec ID : A_DTS
    Duration : 2 h 6 min
    Bit rate mode : Variable/Constant
    Bit rate : 5 210 kb/s/1 509 kb/s
    Channel(s) : 8 channels/6 channels
    Channel positions : Front: L C R, Side: L R, Back: L R, LFE/Front: L C R, Side: L R, LFE
    Sampling rate : 48.0 kHz
    Frame rate : 93.750 FPS (512 SPF)
    Bit depth : 24 bits
    Compression mode : Lossless/Lossy
    Stream size : 4.59 GiB (9%)
    Title : AVO (Yesarev)
    Language : Russian
    Default : No
    Forced : No
    Audio #3
    ID : 4
    Format : TrueHD
    Format profile : TrueHD+Atmos/TrueHD
    Codec ID : A_TRUEHD
    Duration : 2 h 6 min
    Bit rate mode : Variable
    Bit rate : 3 748 kb/s
    Maximum bit rate : 6 243 kb/s
    Channel(s) : Object Based/8 channels
    Channel positions : Object Based/Front: L C R, Side: L R, Back: L R, LFE
    Sampling rate : /48.0 kHz
    Frame rate : 1 200.000 FPS (40 SPF)
    Compression mode : Lossless
    Stream size : 3.30 GiB (6%)
    Title : Original
    Language : English
    Default : No
    Forced : No
    Audio #4
    ID : 5
    Format : AC-3
    Format/Info : Audio Coding 3
    Format settings, Endianness : Big
    Codec ID : A_AC3
    Duration : 2 h 6 min
    Bit rate mode : Constant
    Bit rate : 448 kb/s
    Channel(s) : 6 channels
    Channel positions : Front: L C R, Side: L R, LFE
    Sampling rate : 48.0 kHz
    Frame rate : 31.250 FPS (1536 SPF)
    Bit depth : 16 bits
    Compression mode : Lossy
    Stream size : 404 MiB (1%)
    Language : English
    Service kind : Complete Main
    Default : No
    Forced : No
    Text #1
    ID : 6
    Format : UTF-8
    Codec ID : S_TEXT/UTF8
    Codec ID/Info : UTF-8 Plain Text
    Duration : 11 min 15 s
    Bit rate : 12 b/s
    Count of elements : 23
    Stream size : 1.03 KiB (0%)
    Title : Forced
    Language : Russian
    Default : Yes
    Forced : No
    Text #2
    ID : 7
    Format : UTF-8
    Codec ID : S_TEXT/UTF8
    Codec ID/Info : UTF-8 Plain Text
    Duration : 1 h 57 min
    Bit rate : 71 b/s
    Count of elements : 1106
    Stream size : 61.2 KiB (0%)
    Title : Full
    Language : Russian
    Default : No
    Forced : No
    Text #3
    ID : 8
    Format : UTF-8
    Codec ID : S_TEXT/UTF8
    Codec ID/Info : UTF-8 Plain Text
    Duration : 2 h 4 min
    Bit rate : 46 b/s
    Count of elements : 1452
    Stream size : 42.5 KiB (0%)
    Title : Full
    Language : English
    Default : No
    Forced : No
    Menu
    00: 00: 00.000 : en: 1
    00: 12: 43.000 : en: 2
    00: 21: 05.000 : en: 3
    00: 32: 32.000 : en: 4
    00: 43: 09.000 : en: 5
    00: 56: 48.000 : en: 6
    01: 06: 48.000 : en: 7
    01: 14: 13.000 : en: 8
    01: 23: 44.000 : en: 9
    01: 36: 37.000 : en: 10
    01: 46: 57.000 : en: 11
    01: 58: 59.000 : en: 12

    Релиз подготовил: Автор релиза:
    Подпишись на меня, кликни по картинке :


    Онлайн видео Меч короля Артура


    Размер скачиваемого торрента: 52.81 GB (56699088031 Bytes)

    Меч короля Артура/King Arthur: Legend of the Sword (2017) UHD BDRemux 2160p от ExKinoRay | 4K | HDR | D, A | Лицензия
    загрузка...
    Рейтинг →
     (голосов: 1, оценка 5/5, голосовать можно 1 раз )

    Другие торренты по теме:

  • Янки при дворе короля Артура 2 (2013) PC
  • Марк Твен - Янки при дворе короля Артура (2007) MP3
  • Янки при дворе короля Артура / A Connecticut Yankee in King Arthurs Court (1949) DVDRip от Занавес | P
  • Новый янки при дворе короля Артура Новый Янки на службе у Санта Клауса (2012-2013) PC
  • Новые приключения янки при дворе короля Артура (2 серии из 2) / 1988 / РУ / DVDRip
  • Меч короля Артура / King Arthur: Legend of the Sword (2017) CAMRip | D
  • Меч короля Артура / King Arthur: Legend of the Sword (2017) TS | D
  • Меч короля Артура / King Arthur: Legend of the Sword (2017) TS | D


    • Комментарии (0):

      Информация

      Информация

        Посетители, находящиеся в группе Гости, не могут оставлять комментарии в данной новости.

        ↓ Меню



        ↓ Опрос

        А Вы добавили сайт в закладки?
        Да
        Не


        Top 10 за месяц (Фильмы)