.
Авторизация | Регистрация
Хочешь лучшие торренты? Добавь свой email!
Добавить
» » 5-я волна / The 5th Wave (2016) UHD BDRemux 2160p от ExKinoRay | 4K | HDR | Лицензия скачать торрент бесплатно




    5-я волна / The 5th Wave (2016) UHD BDRemux 2160p от ExKinoRay | 4K | HDR | Лицензия скачать торрент бесплатно

    Опубликовал: Админ | Дата: 30-11-2017, 11:00 | Просмотров: 0



    Детально о кино
    Русское название: 5-я волна
    Русское название в мировом прокате: The 5th Wave
    Создали в: 2016
    Категория жанра: Фантастика, боевик, триллер, приключения
    Главный режиссер: Дж. Блэйксон

    Актеры
    Хлоя Грейс Морец, Ник Дж. Робинсон, Рон Ливингстон, Мэгги Сифф, Алекс Роу, Мария Белло, Майка Монро, Лив Шрайбер, Закари Артур, Тони Револори, Талита Бейтман, Мэттью Зук, Габриела Лопес, Бэйли Энн Бордерс, Дэйв Мальдонадо, Пол Райден, Э. Роджер Митчелл, Чармин Ли, Паркер Вьерлинг, Мэдисон Стэйнс
    О фильме:
    Первая волна оставила за собой мглу. От второй успели убежать только самые везучие. Но едва ли можно назвать везучими тех, кто уцелел после третьей. А четвертая волна стерла все человеческие законы, взамен же установила свой, один-единственный: хочешь жить — не верь никому. И вот уже накатывает пятая волна…

    Снималось в: США
    Киностудия: Columbia Pictures, GK Films, Living Films, LStar Capital, Material Pictures
    Время просмотра: 01: 52: 22
    Перевод текста: Дублированный | Лицензия
    Файл
    Качество фильма: BDRemux 2160p
    Информация о видео: MPEG-H HEVC HDR Video, 3840x2160, 57.7 Mbit/s, 23.976 fps
    Информация о звуке:
    Информация о звуке #01: 48 kHz, AC3, 5.1, 640 Kbps | Дублированный | RUS|
    Информация о звуке #02: 48 kHz, TrueHD, 7.1, 4217 Kbps | Оригинал | ENG|
    Информация о звуке #03: 48 kHz, AC3, 5.1, 640 Kbps | Оригинал | ENG|
    Субтитры: Русские (forced, full), английские

    MI
    General
    Unique ID : 211981287116443345578533597863554141833 (0x9F7A1C60B6A6D716A442D5A576754E89)
    Complete name : G: VideoSSDThe.5th.Wave.2016.BDREMUX.2160p.4K.UltraHD.HEVC.HDR.ExKinoRay.mkv
    Format : Matroska
    Format version : Version 4/Version 2
    File size : 49.7 GiB
    Duration : 1 h 52 min
    Overall bit rate mode : Variable
    Overall bit rate : 63.3 Mb/s
    Movie name : The.5th.Wave.2016.ExKinoRay
    Encoded date : UTC 2017-11-29 12: 22: 32
    Writing application : mkvmerge v17.0.0 (;Be Ur Friend;) 64-bit
    Writing library : libebml v1.3.5 + libmatroska v1.4.8
    Video
    ID : 1
    Format : HEVC
    Format/Info : High Efficiency Video Coding
    Format profile : Main 10@L5.1@High
    Codec ID : V_MPEGH/ISO/HEVC
    Duration : 1 h 52 min
    Bit rate : 57.7 Mb/s
    Width : 3 840 pixels
    Height : 2 160 pixels
    Display aspect ratio : 16: 9
    Frame rate mode : Constant
    Frame rate : 23.976 (24000/1001) FPS
    Color space : YUV
    Chroma subsampling : 4: 2: 0 (Type 2)
    Bit depth : 10 bits
    Bits/(Pixel*Frame) : 0.290
    Stream size : 45.3 GiB (91%)
    Language : English
    Default : Yes
    Forced : No
    Color range : Limited
    Color primaries : BT.2020
    Transfer characteristics : PQ
    Matrix coefficients : BT.2020 non-constant
    Mastering display color pri : R: x=0.680000 y=0.320000, G: x=0.265000 y=0.690000, B: x=0.150000 y=0.060000, White point: x=0.312700 y=0.329000
    Mastering display luminance : min: 0.0050 cd/m2, max: 4000.0000 cd/m2
    Maximum Content Light Level : 1555 cd/m2
    Maximum Frame-Average Light : 199 cd/m2
    Audio #1
    ID : 2
    Format : AC-3
    Format/Info : Audio Coding 3
    Format settings, Endianness : Big
    Codec ID : A_AC3
    Duration : 1 h 52 min
    Bit rate mode : Constant
    Bit rate : 640 kb/s
    Channel(s) : 6 channels
    Channel positions : Front: L C R, Side: L R, LFE
    Sampling rate : 48.0 kHz
    Frame rate : 31.250 FPS (1536 SPF)
    Bit depth : 16 bits
    Compression mode : Lossy
    Stream size : 514 MiB (1%)
    Title : Dub Livense
    Language : Russian
    Service kind : Complete Main
    Default : Yes
    Forced : No
    Audio #2
    ID : 3
    Format : TrueHD
    Format profile : TrueHD+Atmos/TrueHD
    Codec ID : A_TRUEHD
    Duration : 1 h 52 min
    Bit rate mode : Variable
    Bit rate : 4 217 kb/s
    Maximum bit rate : 8 493 kb/s
    Channel(s) : Object Based/8 channels
    Channel positions : Object Based/Front: L C R, Side: L R, Back: L R, LFE
    Sampling rate : /48.0 kHz
    Frame rate : 1 200.000 FPS (40 SPF)
    Compression mode : Lossless
    Stream size : 3.31 GiB (7%)
    Title : Original
    Language : English
    Default : No
    Forced : No
    Audio #3
    ID : 4
    Format : AC-3
    Format/Info : Audio Coding 3
    Format settings, Endianness : Big
    Codec ID : A_AC3
    Duration : 1 h 52 min
    Bit rate mode : Constant
    Bit rate : 640 kb/s
    Channel(s) : 6 channels
    Channel positions : Front: L C R, Side: L R, LFE
    Sampling rate : 48.0 kHz
    Frame rate : 31.250 FPS (1536 SPF)
    Bit depth : 16 bits
    Compression mode : Lossy
    Stream size : 514 MiB (1%)
    Title : Original Dop.
    Language : English
    Service kind : Complete Main
    Default : No
    Forced : No
    Text #1
    ID : 5
    Format : UTF-8
    Codec ID : S_TEXT/UTF8
    Codec ID/Info : UTF-8 Plain Text
    Duration : 8 min 18 s
    Bit rate : 2 b/s
    Count of elements : 3
    Stream size : 171 Bytes (0%)
    Title : Forced
    Language : Russian
    Default : Yes
    Forced : No
    Text #2
    ID : 6
    Format : UTF-8
    Codec ID : S_TEXT/UTF8
    Codec ID/Info : UTF-8 Plain Text
    Duration : 1 h 50 min
    Bit rate : 66 b/s
    Count of elements : 1245
    Stream size : 53.8 KiB (0%)
    Title : Full
    Language : Russian
    Default : No
    Forced : No
    Text #3
    ID : 7
    Format : UTF-8
    Codec ID : S_TEXT/UTF8
    Codec ID/Info : UTF-8 Plain Text
    Duration : 1 h 50 min
    Bit rate : 41 b/s
    Count of elements : 1226
    Stream size : 33.3 KiB (0%)
    Title : Full
    Language : English
    Default : No
    Forced : No
    Text #4
    ID : 8
    Format : UTF-8
    Codec ID : S_TEXT/UTF8
    Codec ID/Info : UTF-8 Plain Text
    Duration : 1 h 45 min
    Bit rate : 48 b/s
    Count of elements : 1331
    Stream size : 37.5 KiB (0%)
    Title : SDH
    Language : English
    Default : No
    Forced : No
    Menu #1
    00: 00: 00.000 : en: 00: 00: 00.000
    00: 03: 48.562 : en: 00: 03: 48.562
    00: 09: 05.837 : en: 00: 09: 05.837
    00: 16: 01.335 : en: 00: 16: 01.335
    00: 20: 46.036 : en: 00: 20: 46.036
    00: 28: 43.430 : en: 00: 28: 43.430
    00: 37: 41.968 : en: 00: 37: 41.968
    00: 45: 50.957 : en: 00: 45: 50.957
    00: 54: 19.715 : en: 00: 54: 19.715
    00: 59: 47.709 : en: 00: 59: 47.709
    01: 06: 01.749 : en: 01: 06: 01.749
    01: 13: 06.132 : en: 01: 13: 06.132
    01: 18: 13.230 : en: 01: 18: 13.230
    01: 25: 02.264 : en: 01: 25: 02.264
    01: 32: 21.161 : en: 01: 32: 21.161
    01: 43: 07.431 : en: 01: 43: 07.431
    Menu #2
    00: 00: 00.054 : en: 00: 00: 00.054

    Релиз подготовил: Автор релиза:
    Подпишись на меня, кликни по картинке :


    Онлайн видео 5-я волна


    Размер скачиваемого торрента: 49.67 GB (53333965888 Bytes)

    5-я волна/The 5th Wave (2016) UHD BDRemux 2160p от ExKinoRay | 4K | HDR | Лицензия
    загрузка...
    Рейтинг →
     (голосов: 1, оценка 4/5, голосовать можно 1 раз )

    Другие торренты по теме:

  • Первая волна / First wave (2000) TVRip
  • Первая волна / First wave (1998-2001) DVDRip, SATRip, DSRip | P скачать через торрент бесплатно
  • OST - 5-я волна / The 5th Wave (2016) MP3
  • 5-я волна / The 5th Wave (2016) WEB-DLRip от Scarabey | iTunes
  • 5-я волна / The 5th Wave (2016) WEB-DLRip от Scarabey | iTunes
  • 5-я волна / The 5th Wave (2016) BDRip-AVC от ExKinoRay | iTunes
  • 5-я волна / The 5th Wave (2016) BDRip от Twi7ter | Лицензия
  • 5-я волна / The 5th Wave (2016) HDRip от MegaPeer | Лицензия


    • Комментарии (0):

      Информация

      Информация

        Посетители, находящиеся в группе Гости, не могут оставлять комментарии в данной новости.

        ↓ Меню



        ↓ Опрос

        А Вы добавили сайт в закладки?
        Да
        Не


        Top 10 за месяц (Фильмы)