.
Авторизация | Регистрация
Хочешь лучшие торренты? Добавь свой email!
Добавить
» » Клинок Бессмертного / Mugen no junin (2017) BDRip 1080p | L скачать торрент бесплатно




    Клинок Бессмертного / Mugen no junin (2017) BDRip 1080p | L скачать торрент бесплатно

    Опубликовал: Админ | Дата: 30-11-2017, 11:00 | Просмотров: 0



    Русское название: Клинок Бессмертного
    Русское название в мировом прокате: Mugen no junin
    Создали в: 2017
    Категория жанра: Боевик, драма, история
    Главный режиссер: Такаси Миике

    Актеры

    Такуя Кимура, Хана Сугисаки, Сота Фукуси, Хаято Итихара, Эрика Тода, Казуки Китамура, Тиаки Курияма, Синносукэ Мицусима, Кэн Канэко, Ёко Ямамото и др.
    Описание фильма:
    Самурай Мандзи случайно убил мужа сестры, после чего та немного подвинулась умом. Больше у девушки никого на свете нет, поэтому старший брат живёт только для того, чтобы её защищать. Однажды злодеи убивают сестру и калечат Мандзи, который желает лишь одного — смерти, но рядом вдруг оказывается странная старушка. Она заражает самурая кровяными червями — загадочными паразитами, которые делают своего носителя бессмертным, затягивая раны и восстанавливая отрубленные конечности. 80 лет спустя та же старушка направляет к самураю девушку, желающую отомстить за смерть отца. Девушку, как две капли воды похожую на покойную сестру Мандзи.
    Снималось в: Япония, Великобритания
    Киностудия: Warner Bros., Oriental Light and Magic , Recorded Picture Company
    Время просмотра: 02: 20: 58
    Перевод текста: Любительский (многоголосый) Студия Paradox Omskbird records
    Субтитры: Отсутствуют

    Файл
    Тип видео: MKV
    Качество фильма: BDRip (1080p)
    Реклама: Отсутствует
    Информация о видео: MPEG-4 AVC, 12300 Кбит/с Кбит/с, 1920x804, 23.976 fps
    Информация о звуке RUS: AC3, 6 ch, 640 Кбит/с
    Информация о звуке RUS: DTS, 6 ch, 1509 Kbps
    Информация о звуке JAP: DTS, 6 ch, 1509 Кбит/с

    Над озвучиванием работали
    • Перевод: Любовь Леонок, Шура Савельева, Маша Волнистая
    • Роли озвучивали: Алексей Гнеушев, Анастасия Флигина, Денис Строев, Дмитрий Виноградов, Алёна Соколова
    • Звукорежиссер: Павел Квентов, Юрий Гамов, Олег Кушнеров
    MediaInfo
    Формат : Matroska
    Версия формата : Version 4/Version 2
    Размер файла : 17, 7 Гбайт
    Продолжительность : 2 ч. 20 м.
    Общий поток : 18, 0 Мбит/сек
    Программа кодирования : mkvmerge v17.0.0 (;Be Ur Friend;) 64-bit
    Библиотека кодирования : libebml v1.3.5 + libmatroska v1.4.8
    Обложка : Yes
    Attachments : cover_land.jpg/small_cover.jpg/small_cover_land.jpg/cover.jpg
    Видео
    Идентификатор : 1
    Формат : AVC
    Формат/Информация : Advanced Video Codec
    Профиль формата : High@L4.1
    Настройки формата : CABAC/4 Ref Frames
    Параметр CABAC формата : Да
    Параметр RefFrames формата : 4 кадра
    Идентификатор кодека : V_MPEG4/ISO/AVC
    Продолжительность : 2 ч. 20 м.
    Битрейт : 12, 3 Мбит/сек
    Ширина : 1920 пикселей
    Высота : 804 пикселя
    Соотношение сторон : 2, 40: 1
    Режим частоты кадров : Постоянный
    Частота кадров : 23, 976 (24000/1001) кадра/сек
    Цветовое пространство : YUV
    Субдискретизация насыщенности : 4: 2: 0
    Битовая глубина : 8 бит
    Тип развёртки : Прогрессивная
    Бит/(Пиксели*Кадры) : 0.331
    Размер потока : 12, 1 Гбайт (68%)
    Библиотека кодирования : x264 core 148 r2795M aaa9aa8
    Настройки программы : cabac=1/ref=4/deblock=1: -2: -2/analyse=0x3: 0x113/me=umh/subme=9/psy=1/psy_rd=1.00: 0.15/mixed_ref=1/me_range=16/chroma_me=1/trellis=2/8x8dct=1/cqm=0/deadzone=21, 11/fast_pskip=1/chroma_qp_offset=-3/threads=24/lookahead_threads=3/sliced_threads=0/nr=0/decimate=1/interlaced=0/bluray_compat=0/constrained_intra=0/bframes=3/b_pyramid=2/b_adapt=2/b_bias=0/direct=3/weightb=1/open_gop=0/weightp=2/keyint=250/keyint_min=23/scenecut=40/intra_refresh=0/rc_lookahead=50/rc=crf/mbtree=1/crf=17.0/qcomp=0.60/qpmin=0/qpmax=69/qpstep=4/ip_ratio=1.40/aq=1: 1.00
    Язык : English
    Default : Да
    Forced : Нет
    Аудио #1
    Идентификатор : 2
    Формат : AC-3
    Формат/Информация : Audio Coding 3
    Идентификатор кодека : A_AC3
    Продолжительность : 2 ч. 20 м.
    Вид битрейта : Постоянный
    Битрейт : 640 Кбит/сек
    Каналы : 6 каналов
    Расположение каналов : Front: L C R, Side: L R, LFE
    Частота : 48, 0 КГц
    Частота кадров : 31, 250 кадров/сек (1536 SPF)
    Битовая глубина : 16 бит
    Метод сжатия : С потерями
    Размер потока : 645 Мбайт (4%)
    Язык : Russian
    Default : Нет
    Forced : Нет
    Аудио #2
    Идентификатор : 3
    Формат : DTS
    Формат/Информация : Digital Theater Systems
    Идентификатор кодека : A_DTS
    Продолжительность : 2 ч. 20 м.
    Вид битрейта : Постоянный
    Битрейт : 1509 Кбит/сек
    Каналы : 6 каналов
    Расположение каналов : Front: L C R, Side: L R, LFE
    Частота : 48, 0 КГц
    Частота кадров : 93, 750 кадра/сек (512 SPF)
    Битовая глубина : 24 бит
    Метод сжатия : С потерями
    Размер потока : 1, 49 Гбайт (8%)
    Язык : Russian
    Default : Нет
    Forced : Нет
    Аудио #3
    Идентификатор : 4
    Формат : DTS
    Формат/Информация : Digital Theater Systems
    Профиль формата : MA/Core
    Идентификатор кодека : A_DTS
    Продолжительность : 2 ч. 20 м.
    Вид битрейта : Переменный/Постоянный
    Битрейт : 3578 Кбит/сек/1509 Кбит/сек
    Каналы : 6 каналов
    Расположение каналов : Front: L C R, Side: L R, LFE
    Частота : 48, 0 КГц
    Частота кадров : 93, 750 кадра/сек (512 SPF)
    Битовая глубина : 24 бит
    Метод сжатия : Без потерь/Lossy
    Размер потока : 3, 52 Гбайт (20%)
    Язык : Japanese
    Default : Да
    Forced : Нет
    Меню
    00: 00: 00.000 : en: Chapter 01
    00: 11: 51.168 : en: Chapter 02
    00: 25: 10.675 : en: Chapter 03
    00: 42: 28.254 : en: Chapter 04
    00: 52: 53.420 : en: Chapter 05
    01: 01: 27.684 : en: Chapter 06
    01: 16: 27.583 : en: Chapter 07
    01: 28: 38.855 : en: Chapter 08
    01: 36: 22.109 : en: Chapter 09
    01: 45: 16.518 : en: Chapter 10
    02: 01: 52.013 : en: Chapter 11
    02: 16: 54.080 : en: Chapter 12
    02: 20: 57.073 : en: Chapter 13
    Скриншоты


    Онлайн видео Клинок Бессмертного


    Размер скачиваемого торрента: 17.71 GB (19015944043 Bytes)

    Клинок Бессмертного/Mugen no junin (2017) BDRip 1080p | L
    загрузка...
    Рейтинг →
     (голосов: 1, оценка 5/5, голосовать можно 1 раз )

    Другие торренты по теме:

  • Клинок Бессмертного / Mugen no Juunin (2008) DVDRip скачать через торрент бесплатно
  • Клинок Бессмертного / Mugen no junin (2017) BDRip 1080p | L


    • Комментарии (0):

      Информация

      Информация

        Посетители, находящиеся в группе Гости, не могут оставлять комментарии в данной новости.

        ↓ Меню



        ↓ Опрос

        А Вы добавили сайт в закладки?
        Да
        Не


        Top 10 за месяц (Фильмы)