.
Авторизация | Регистрация
Хочешь лучшие торренты? Добавь свой email!
Добавить
» » Голодные игры: Сойка-пересмешница. Часть I / The Hunger Games: Mockingjay - Part 1 (2014) UHD BDRemux 2160p | 4K | HDR | D, A | Лицензия скачать торрент бесплатно




    Голодные игры: Сойка-пересмешница. Часть I / The Hunger Games: Mockingjay - Part 1 (2014) UHD BDRemux 2160p | 4K | HDR | D, A | Лицензия скачать торрент бесплатно

    Опубликовал: Админ | Дата: 20-11-2017, 11:00 | Просмотров: 0



    Создали в: США/Lionsgate
    Категория жанра: фантастика, боевик, триллер, приключения
    Главный режиссер: Френсис Лоуренс
    Продюсер: Нина Джейкобсон, Джон Килик, Сьюзен Коллинз
    Актеры: Дженнифер Лоуренс, Лиам Хемсворт, Джош Хатчерсон, Джулианна Мур, Филип Сеймур Хоффман, Дональд Сазерленд, Вуди Харрельсон, Элизабет Бэнкс, Натали Дормер, Сэм Клафлин

    Описание фильма

    75-ые Голодные игры изменили все. Китнисс нарушила правила, и непоколебимое до той поры деспотичное правление Капитолия пошатнулось. У людей появилась надежда, и ее символ — Сойка-пересмешница. Теперь, чтобы освободить захваченного в плен Пита и защитить своих близких, Китнисс придется сражаться в настоящих битвах и стать еще сильнее, чем на арене игр.

    Релиз подготовил: HDRINVASION, BLUEBIRD
    Время просмотра: 02: 02: 50
    Качество фильма: UHD BDRemux (HDR)
    Перевод текста: Дублированный (Лицензия BD RUS), Авторский (одноголосый, закадровый) (Ю.Сербин, А.Матвеев)
    Субтитры: Английские, Русские (Full-length, Forced)
    Информация о видео: HEVC/H.265, 3840x2160p, (16: 9), 73.0 Mb/s, 23, 976 fps
    Информация о звуке: DTS, 6 ch, 1509 kbps - Русский, Дубляж
    Информация о звуке: DTS-HD-MA, 8 ch, 5089 kbps - Русский, Ю.Сербин
    Информация о звуке: DTS-HD-MA, 8 ch, 5080 kbps - Русский, А.Матвеев
    Информация о звуке: TrueHD-Atmos, 8 ch, 4829 kbps - Английский
    MediaInfo:
    Video
    ID : 1
    Format : HEVC
    Format/Info : High Efficiency Video Coding
    Format profile : Main 10@L5.1@High
    Codec ID : V_MPEGH/ISO/HEVC
    Duration : 2 h 2 min
    Bit rate : 73.0 Mb/s
    Width : 3 840 pixels
    Height : 2 160 pixels
    Display aspect ratio : 16: 9
    Frame rate mode : Constant
    Frame rate : 23.976 (24000/1001) FPS
    Color space : YUV
    Chroma subsampling : 4: 2: 0 (Type 2)
    Bit depth : 10 bits
    Bits/(Pixel*Frame) : 0.367
    Stream size : 62.6 GiB (81%)
    Title : HG_MOCKINGJAY_PT1_BD_UHD_HDR_REMUX-BLUEBIRD
    Writing library : ATEME Titan KFE 3.7.3 (4.7.3.1003)
    Default : Yes
    Forced : No
    Color range : Limited
    Color primaries : BT.2020
    Transfer characteristics : PQ
    Matrix coefficients : BT.2020 non-constant
    Mastering display color primaries : R: x=0.680000 y=0.320000, G: x=0.265000 y=0.690000, B: x=0.150000 y=0.060000, White point: x=0.312700 y=0.329000
    Mastering display luminance : min: 0.0000 cd/m2, max: 1000.0000 cd/m2
    Maximum Content Light Level : 686 cd/m2
    Maximum Frame-Average Light Level : 230 cd/m2
    Audio #1
    ID : 2
    Format : DTS
    Format/Info : Digital Theater Systems
    Codec ID : A_DTS
    Duration : 2 h 2 min
    Bit rate mode : Constant
    Bit rate : 1 509 kb/s
    Channel(s) : 6 channels
    Channel positions : Front: L C R, Side: L R, LFE
    Sampling rate : 48.0 kHz
    Frame rate : 93.750 FPS (512 SPF)
    Bit depth : 24 bits
    Compression mode : Lossy
    Stream size : 1.30 GiB (2%)
    Title : DUB DTS 5.1 @ 1509 kbps
    Language : Russian
    Default : Yes
    Forced : No
    Audio #2
    ID : 3
    Format : DTS
    Format/Info : Digital Theater Systems
    Format profile : MA/Core
    Codec ID : A_DTS
    Duration : 2 h 2 min
    Bit rate mode : Variable/Constant
    Bit rate : 5 089 kb/s/1 509 kb/s
    Channel(s) : 8 channels/6 channels
    Channel positions : Front: L C R, Side: L R, Back: L R, LFE/Front: L C R, Side: L R, LFE
    Sampling rate : 48.0 kHz
    Frame rate : 93.750 FPS (512 SPF)
    Bit depth : 24 bits
    Compression mode : Lossless/Lossy
    Stream size : 4.37 GiB (6%)
    Title : VO DTS-HD MA 7.1 @ 4750 kbps (Y.Serbin)
    Language : Russian
    Default : No
    Forced : No
    Audio #3
    ID : 4
    Format : DTS
    Format/Info : Digital Theater Systems
    Format profile : MA/Core
    Codec ID : A_DTS
    Duration : 2 h 2 min
    Bit rate mode : Variable/Constant
    Bit rate : 5 080 kb/s/1 509 kb/s
    Channel(s) : 8 channels/6 channels
    Channel positions : Front: L C R, Side: L R, Back: L R, LFE/Front: L C R, Side: L R, LFE
    Sampling rate : 48.0 kHz
    Frame rate : 93.750 FPS (512 SPF)
    Bit depth : 24 bits
    Compression mode : Lossless/Lossy
    Stream size : 4.36 GiB (6%)
    Title : VO DTS-HD MA 7.1 @ 4801 kbps (A.Matveev)
    Language : Russian
    Default : No
    Forced : No
    Audio #4
    ID : 5
    Format : TrueHD
    Format profile : TrueHD+Atmos/TrueHD
    Codec ID : A_TRUEHD
    Duration : 2 h 2 min
    Bit rate mode : Variable
    Bit rate : 4 829 kb/s
    Maximum bit rate : 8 091 kb/s
    Channel(s) : Object Based/8 channels
    Channel positions : Object Based/Front: L C R, Side: L R, Back: L R, LFE
    Sampling rate : /48.0 kHz
    Frame rate : 1 200.000 FPS (40 SPF)
    Compression mode : Lossless
    Delay relative to video : 32 ms
    Stream size : 4.14 GiB (5%)
    Title : ORIGINAL ATMOS 7.1 @ 5469 kbps
    Language : English
    Default : No
    Forced : No
    Text #1
    ID : 6
    Format : PGS
    Codec ID : S_HDMV/PGS
    Codec ID/Info : Picture based subtitle format used on BDs/HD-DVDs
    Duration : 1 h 49 min
    Bit rate : 48.2 kb/s
    Count of elements : 2484
    Stream size : 37.8 MiB (0%)
    Title : Full-length
    Language : Russian
    Default : No
    Forced : No
    Text #2
    ID : 7
    Format : PGS
    Codec ID : S_HDMV/PGS
    Codec ID/Info : Picture based subtitle format used on BDs/HD-DVDs
    Duration : 1 h 49 min
    Bit rate : 34.2 kb/s
    Count of elements : 2528
    Stream size : 26.9 MiB (0%)
    Title : Full-length
    Language : English
    Default : No
    Forced : No
    Text #3
    ID : 8
    Format : PGS
    Codec ID : S_HDMV/PGS
    Codec ID/Info : Picture based subtitle format used on BDs/HD-DVDs
    Duration : 6 min 8 s
    Bit rate : 19.9 kb/s
    Count of elements : 54
    Stream size : 894 KiB (0%)
    Title : Forced
    Language : Russian
    Default : Yes
    Forced : Yes
    Menu
    00: 00: 00.000 : en: Chapter 1
    00: 08: 43.648 : en: Chapter 2
    00: 15: 02.818 : en: Chapter 3
    00: 22: 56.083 : en: Chapter 4
    00: 29: 52.457 : en: Chapter 5
    00: 36: 45.745 : en: Chapter 6
    00: 42: 34.969 : en: Chapter 7
    00: 50: 33.989 : en: Chapter 8
    00: 56: 31.012 : en: Chapter 9
    01: 02: 14.897 : en: Chapter 10
    01: 09: 27.830 : en: Chapter 11
    01: 17: 37.444 : en: Chapter 12
    01: 25: 10.105 : en: Chapter 13
    01: 34: 20.946 : en: Chapter 14
    01: 41: 33.837 : en: Chapter 15
    01: 47: 20.100 : en: Chapter 16

    Скриншоты:


    Онлайн видео Голодные игры: Сойка-пересмешница. Часть I


    Размер скачиваемого торрента: 76.91 GB (82580470237 Bytes)

    Голодные игры: Сойка-пересмешница. Часть I/The Hunger Games: Mockingjay - Part 1 (2014) UHD BDRemux 2160p | 4K | HDR | D, A | Лицензия
    загрузка...
    Рейтинг →
     (голосов: 1, оценка 3/5, голосовать можно 1 раз )

    Другие торренты по теме:

  • Голодные игры / The Hunger Games (2012) HDRip
  • Сьюзен Коллинз / Suzanne Collins - Голодные игры (2010-2011) fb2
  • Голодные игры: И вспыхнет пламя / The Hunger Games: Catching Fire (2013) HD 1080p | Трейлер-тизер
  • Голодные игры (2013) SATRip
  • OST - Голодные игры / The Hunger Games (2012) MP3 скачать через торрент бесплатно
  • Пусть говорят - Голодные игры (2013) HDTVRip от MediaClub скачать через торрент бесплатно
  • OST - Голодные игры: И вспыхнет пламя / Hunger Games: Catching Fire (2013) MP3
  • Голодные игры: И вспыхнет пламя / The Hunger Games: Catching Fire (2013) DCPrip | Трейлер


    • Комментарии (0):

      Информация

      Информация

        Посетители, находящиеся в группе Гости, не могут оставлять комментарии в данной новости.

        ↓ Меню



        ↓ Опрос

        А Вы добавили сайт в закладки?
        Да
        Не


        Top 10 за месяц (Фильмы)