.
Авторизация | Регистрация
Хочешь лучшие торренты? Добавь свой email!
Добавить




Фэйк (2015) HDTV 1080i скачать торрент бесплатно

Опубликовал: Админ | Дата: 13-11-2017, 11:00 | Просмотров: 0



Детально о кино
Русское название: Фэйк
Создали в: 2015
Категория жанра: комедия, короткометражный
Главный режиссер: Иван Китаев

Актеры
Олег Алмазов, Марианна Шульц, Кирилл Плетнёв, Юрий Тарасов, Данила Шевченко, Алексей Вертков

Сюжет фильма

Метафорическая комедия режиссера Ивана Китаева про Ленина и приключения патологоанатомов, ироничная и честная попытка разобраться в прошлом, настоящем и будущем нашей страны. Ленин жил, Ленин жив, Ленин будет жить - заклинание, преследующее Россию целый век. Эта фигура стала ключевой для столетия не только русской, но и мировой истории. Построенные им иллюзии по-прежнему правят умами немалого количества людей, грозя новыми трагедиями. На главной площади страны все еще хранится тело вождя революции, а из подсознания не уходят его идеи. Но пока не удастся освободиться от призрака прошлого, невозможно шагнуть в будущее.
Снималось в: Россия
Киностудия: Cine LAB, Cinemarent, Renta CAM
Время просмотра: 00: 29: 10
Перевод текста: Не требуется
Файл
Кодек для видео: MPEG-4 AVC
Качество фильма: HDTV 1080i
Информация о видео: 1920x1080 (16: 9), 25 fps, AVC (x264), High@L4, 5217 kbps, 25fps, 0.101 bit/pixel
Информация о звуке:
Русский 48.0 KHz, AC3 6 ch (Front: L C R, Side: L R, LFE) ch, ~384.00 kbps avg
Русский 48 kHz, MPEG Layer 2, 2 ch, ~192.00 kbps avg
Семпл
MediaInfo
General
ID : 1 (0x1)
Complete name : F: НаладкиФейкФзйк.ts
Format : MPEG-TS
File size : 1.24 GiB
Duration : 29 min 10 s
Overall bit rate mode : Variable
Overall bit rate : 6 101 kb/s
Video
ID : 303 (0x12F)
Menu ID : 26003 (0x6593)
Format : AVC
Format/Info : Advanced Video Codec
Format profile : High@L4
Format settings : CABAC/4 Ref Frames
Format settings, CABAC : Yes
Format settings, RefFrames : 4 frames
Codec ID : 27
Duration : 29 min 10 s
Bit rate : 5 217 kb/s
Width : 1 920 pixels
Height : 1 080 pixels
Display aspect ratio : 16: 9
Frame rate : 25.000 FPS
Standard : Component
Color space : YUV
Chroma subsampling : 4: 2: 0
Bit depth : 8 bits
Scan type : Interlaced
Scan type, store method : Separated fields
Scan order : Top Field First
Bits/(Pixel*Frame) : 0.101
Stream size : 1.06 GiB (86%)
Color range : Limited
Color primaries : BT.709
Transfer characteristics : BT.709
Matrix coefficients : BT.709
Audio #1
ID : 403 (0x193)
Menu ID : 26003 (0x6593)
Format : AC-3
Format/Info : Audio Coding 3
Format settings, Endianness : Big
Codec ID : 6
Duration : 29 min 10 s
Bit rate mode : Constant
Bit rate : 384 kb/s
Channel(s) : 6 channels
Channel positions : Front: L C R, Side: L R, LFE
Sampling rate : 48.0 kHz
Frame rate : 31.250 FPS (1536 SPF)
Bit depth : 16 bits
Compression mode : Lossy
Delay relative to video : -80 ms
Stream size : 80.1 MiB (6%)
Language : Russian
Service kind : Complete Main
Audio #2
ID : 404 (0x194)
Menu ID : 26003 (0x6593)
Format : MPEG Audio
Format version : Version 1
Format profile : Layer 2
Codec ID : 3
Duration : 29 min 10 s
Bit rate mode : Constant
Bit rate : 192 kb/s
Channel(s) : 2 channels
Sampling rate : 48.0 kHz
Compression mode : Lossy
Delay relative to video : -80 ms
Stream size : 40.1 MiB (3%)
Language : English
Text
ID : 405 (0x195)-888
Menu ID : 26003 (0x6593)
Format : Teletext Subtitle
Language : Russian

Скриншоты

Релиз подготовил: kyba

Онлайн видео Иван Васильевич меняет профессию (1973) BDRip


Размер скачиваемого торрента: 1.24 GB (1334641892 Bytes)

Фэйк (2015) HDTV 1080i
загрузка...
Рейтинг →
 (голосов: 1, оценка 4/5, голосовать можно 1 раз )

Другие торренты по теме:



    Комментарии (0):

    Информация

    Информация

      Посетители, находящиеся в группе Гости, не могут оставлять комментарии в данной новости.

      ↓ Меню



      ↓ Опрос

      А Вы добавили сайт в закладки?
      Да
      Не


      Top 10 за месяц (Фильмы)