.
Авторизация | Регистрация
Хочешь лучшие торренты? Добавь свой email!
Добавить
» » Голос монстра / A Monster Calls (2016) BDRip 720p от ExKinoRay | Лицензия скачать торрент бесплатно




    Голос монстра / A Monster Calls (2016) BDRip 720p от ExKinoRay | Лицензия скачать торрент бесплатно

    Опубликовал: Админ | Дата: 13-11-2017, 11:00 | Просмотров: 0



    Детально о кино
    Русское название: Голос монстра
    Русское название в мировом прокате: A Monster Calls
    Создали в: 2016
    Категория жанра: Фэнтези, драма
    Главный режиссер: Хуан Антонио Байона

    Актеры
    Льюис МакДугалл, Сигурни Уивер, Фелисити Джонс, Тоби Кеббелл, Бен Моор, Джеймс Мелвилл, Оливер Стир, Доминик Бойл, Дженнифер Лим, Макс Габбей
    О фильме:
    Поражающая воображение история о мальчике Конноре и монстре из его снов. Когда Коннору особенно тяжело, происходит нечто невероятное — старое тисовое дерево за окном оживает и превращается в громадное чудовище. По ночам монстр рассказывает Коннору истории, которые помогут ему понять, что даже когда весь мир рушится, можно найти в себе силы и не отчаиваться.

    Снималось в: США, Испания
    Киностудия: Apaches Entertainment, La Trini, Monster Calls, A, Participant Media, River Road Entertainment
    Время просмотра: 01: 48: 36
    Перевод текста: Дублированный | Лицензия
    Файл
    Качество фильма: BDRip 720p
    Информация о видео: MPEG-4 AVC, 1280x536, 3900 Kbit/s, 23.976 fps
    Информация о звуке:
    Информация о звуке #01: 48 kHz, DTS, 5.1, 1510 Kbps | Дублированный |RUS
    Информация о звуке #02: 48 kHz, AC3, 5.1, 640 Kbps | Дублированный |RUS
    Информация о звуке #03: 48 kHz, AC3, 5.1, 448 kbps | Оригинал |ENG
    Субтитры: Русские, английские
    MI
    General
    Unique ID : 229929372237403721105619538856000266327 (0xACFAC94B8584B9B5AB9418BC8016A057)
    Complete name : G: VideoSSDA.Monster.Calls.2016.BDRip.720p.ExKinoRay.mkv
    Format : Matroska
    Format version : Version 4/Version 2
    File size : 4.92 GiB
    Duration : 1 h 48 min
    Overall bit rate : 6 500 kb/s
    Movie name : Release by ExKinoRay
    Encoded date : UTC 2017-11-12 04: 20: 59
    Writing application : mkvmerge v17.0.0 (;Be Ur Friend;) 64-bit
    Writing library : libebml v1.3.5 + libmatroska v1.4.8
    Video
    ID : 1
    Format : AVC
    Format/Info : Advanced Video Codec
    Format profile : High@L4.1
    Format settings : CABAC/12 Ref Frames
    Format settings, CABAC : Yes
    Format settings, RefFrames : 12 frames
    Codec ID : V_MPEG4/ISO/AVC
    Duration : 1 h 48 min
    Bit rate : 3 900 kb/s
    Width : 1 280 pixels
    Height : 536 pixels
    Display aspect ratio : 2.40: 1
    Frame rate mode : Constant
    Frame rate : 23.976 (24000/1001) FPS
    Color space : YUV
    Chroma subsampling : 4: 2: 0
    Bit depth : 8 bits
    Scan type : Progressive
    Bits/(Pixel*Frame) : 0.237
    Stream size : 2.95 GiB (60%)
    Writing library : x264 core 148 r2744kMod b97ae06
    Encoding settings : cabac=1/ref=12/deblock=1: -3: -3/analyse=0x3: 0x133/me=umh/subme=11/psy=1/fade_compensate=0.00/psy_rd=1.05: 0.00/mixed_ref=1/me_range=48/chroma_me=1/trellis=2/8x8dct=1/cqm=0/deadzone=21, 11/fast_pskip=0/chroma_qp_offset=-2/threads=12/lookahead_threads=2/sliced_threads=0/nr=0/decimate=0/interlaced=0/bluray_compat=0/constrained_intra=0/bframes=8/b_pyramid=2/b_adapt=2/b_bias=0/direct=3/weightb=1/open_gop=0/weightp=2/keyint=240/keyint_min=2/scenecut=40/intra_refresh=0/rc_lookahead=60/rc=crf/mbtree=0/crf=17.5000/qcomp=0.70/qpmin=0/qpmax=69/qpstep=4/vbv_maxrate=50000/vbv_bufsize=30000/crf_max=0.0/nal_hrd=none/filler=0/ip_ratio=1.25/pb_ratio=1.20/aq=3: 0.85
    Language : English
    Default : Yes
    Forced : No
    Audio #1
    ID : 2
    Format : DTS
    Format/Info : Digital Theater Systems
    Mode : 16
    Format settings, Endianness : Big
    Codec ID : A_DTS
    Duration : 1 h 48 min
    Bit rate mode : Constant
    Bit rate : 1 509 kb/s
    Channel(s) : 6 channels
    Channel positions : Front: L C R, Side: L R, LFE
    Sampling rate : 48.0 kHz
    Frame rate : 93.750 FPS (512 SPF)
    Bit depth : 24 bits
    Compression mode : Lossy
    Stream size : 1.14 GiB (23%)
    Title : Dub License
    Language : Russian
    Default : Yes
    Forced : No
    Audio #2
    ID : 3
    Format : AC-3
    Format/Info : Audio Coding 3
    Format settings, Endianness : Big
    Codec ID : A_AC3
    Duration : 1 h 48 min
    Bit rate mode : Constant
    Bit rate : 640 kb/s
    Channel(s) : 6 channels
    Channel positions : Front: L C R, Side: L R, LFE
    Sampling rate : 48.0 kHz
    Frame rate : 31.250 FPS (1536 SPF)
    Bit depth : 16 bits
    Compression mode : Lossy
    Stream size : 496 MiB (10%)
    Title : Dub License
    Language : Russian
    Service kind : Complete Main
    Default : No
    Forced : No
    Audio #3
    ID : 4
    Format : AC-3
    Format/Info : Audio Coding 3
    Format settings, Endianness : Big
    Codec ID : A_AC3
    Duration : 1 h 48 min
    Bit rate mode : Constant
    Bit rate : 448 kb/s
    Channel(s) : 6 channels
    Channel positions : Front: L C R, Side: L R, LFE
    Sampling rate : 48.0 kHz
    Frame rate : 31.250 FPS (1536 SPF)
    Bit depth : 16 bits
    Compression mode : Lossy
    Stream size : 347 MiB (7%)
    Title : Original
    Language : English
    Service kind : Complete Main
    Default : No
    Forced : No
    Text #1
    ID : 5
    Format : UTF-8
    Codec ID : S_TEXT/UTF8
    Codec ID/Info : UTF-8 Plain Text
    Duration : 1 h 35 min
    Bit rate : 72 b/s
    Count of elements : 878
    Stream size : 51.0 KiB (0%)
    Title : Full iTunes
    Language : Russian
    Default : No
    Forced : No
    Text #2
    ID : 6
    Format : UTF-8
    Codec ID : S_TEXT/UTF8
    Codec ID/Info : UTF-8 Plain Text
    Duration : 1 h 35 min
    Bit rate : 42 b/s
    Count of elements : 939
    Stream size : 29.6 KiB (0%)
    Title : Full
    Language : English
    Default : No
    Forced : No
    Menu
    00: 00: 00.000 : en: 00: 00: 00.000
    00: 08: 12.659 : en: 00: 08: 12.659
    00: 15: 35.601 : en: 00: 15: 35.601
    00: 24: 41.480 : en: 00: 24: 41.480
    00: 31: 50.909 : en: 00: 31: 50.909
    00: 38: 50.703 : en: 00: 38: 50.703
    00: 50: 10.925 : en: 00: 50: 10.925
    00: 55: 48.095 : en: 00: 55: 48.095
    01: 03: 51.661 : en: 01: 03: 51.661
    01: 13: 11.679 : en: 01: 13: 11.679
    01: 19: 19.296 : en: 01: 19: 19.296
    01: 28: 52.494 : en: 01: 28: 52.494
    01: 40: 36.030 : en: 01: 40: 36.030


    Релиз подготовил: Автор релиза:

    Онлайн видео Голос монстра


    Размер скачиваемого торрента: 4.92 GB (5285724703 Bytes)

    Голос монстра/A Monster Calls (2016) BDRip 720p от ExKinoRay | Лицензия
    загрузка...
    Рейтинг →
     (голосов: 1, оценка 5/5, голосовать можно 1 раз )

    Другие торренты по теме:

  • Голос монстра / A Monster Calls (2016) DVDScr | L
  • Голос монстра / A Monster Calls (2016) BDRip от MegaPeer | L1
  • Голос монстра / A Monster Calls (2016) BDRip 1080p от ExKinoRay | L1
  • Голос монстра / A Monster Calls (2016) BDRip 720p | Line
  • Голос монстра / A Monster Calls (2016) BDRip от ExKinoRay | Line
  • Голос монстра / A Monster Calls (2016) HDRip от Scarabey | Line
  • Голос монстра / A Monster Calls (2016) BDRip-AVC от OlLanDGroup | Line
  • Голос монстра / A Monster Calls (2016) BDRip | Line


    • Комментарии (0):

      Информация

      Информация

        Посетители, находящиеся в группе Гости, не могут оставлять комментарии в данной новости.

        ↓ Меню



        ↓ Опрос

        А Вы добавили сайт в закладки?
        Да
        Не


        Top 10 за месяц (Фильмы)