.
Авторизация | Регистрация
Хочешь лучшие торренты? Добавь свой email!
Добавить
» » Занесло / Redirected (2014) BDRip-AVC | L, A, L1 скачать торрент бесплатно




    Занесло / Redirected (2014) BDRip-AVC | L, A, L1 скачать торрент бесплатно

    Опубликовал: Админ | Дата: 13-11-2017, 11:00 | Просмотров: 0



    Детально о кино
    Русское название: Занесло
    Русское название в мировом прокате: Redirected
    Создали в: 2014
    Категория жанра: боевик, триллер, комедия, криминал
    Главный режиссер: Эмилис Веливис

    Актеры
    Винни Джонс, Скот Уильямс, Гил Дарнелл, Оливер Джексон, Энтони Страхан, Андрюс Жюраускас, Витаутас Шапранаускас, Артур Смольянинов, Вита Сяусюнайте, Моника Вайчюлите

    Сюжет фильма

    Картина повествует о необычайных приключениях в Литве четырёх англичан — Майкла, Джонни, Бена и Тима. После удачного налёта в Лондоне на нелегальное казино, славная четвёрка садится в самолет, летящий в Малайзию. Кажется, все идёт по плану. Но… Никто не мог предусмотреть проделок вулкана Эйяфьядлайёкюдля, извержение которого вынудило самолет с англичанами сесть в Вильнюсе. Мало того, помимо местных разборок и приключений на все части тела, друзьям приходится спасаться от жаждущего мести владельца ограбленного казино.
    ПРИСУТСТВУЕТ НЕНОРМАТИВНАЯ ЛЕКСИКА

    Снималось в: Литва, Великобритания
    Киностудия: Kinokultas, Wellington Films
    Время просмотра: 01: 39: 08
    Перевод текста: любительский многоголосный, закадровый Paradox; авторский А.Матвеев, Е.Гаевский, В.Котов; любительский одноголосный, закдровый Р.Закиров - RAIM
    Файл
    Кодек для видео: H.264
    Качество фильма: BDRip-AVC
    Информация о видео: AVC, 1024x430 (2.40 : 1), 23.976 fps ~ 3400 Kbps
    Информация о звуке:
    AC3, 48 KHz, 6 ch ~ 448 Kb/s (Paradox)
    AC3, 48 KHz, 6 ch ~ 448 Kb/s (Матвеев)
    AC3, 48 KHz, 6 ch ~ 448 Kb/s (Гаевский)
    AC3, 48 KHz, 6 ch ~ 384 Kb/s (Котов)
    AC3, 48 KHz, 6 ch ~ 384 Kb/s (RAIM)
    AC3, 48 KHz, 6 ch ~ 448 Kb/s (английский)
    Субтитры: Русские, английские
    MI:

    Общее
    Уникальный идентификатор : 249646028613457559211066993970147400842 (0xBBD01381DE967F7D8839694438869C8A)
    Полное имя : Q: TorFZaneslo.2014.x264.BDRip.(AVC)-MediaClub.mkv
    Формат : Matroska
    Версия формата : Version 4/Version 2
    Размер файла : 4, 13 Гбайт
    Продолжительность : 1 ч. 39 м.
    Общий поток : 5961 Кбит/сек
    Название фильма : = MediaClub = rip by Painter
    Дата кодирования : UTC 2015-01-28 13: 10: 53
    Программа кодирования : mkvmerge v7.5.0 (;Glass Culture;) 32bit built on Jan 4 2015 16: 37: 25
    Библиотека кодирования : libebml v1.3.1 + libmatroska v1.4.2
    DURATION : 01: 39: 08.288000000
    NUMBER_OF_FRAMES : 185884
    NUMBER_OF_BYTES : 285517824
    _STATISTICS_WRITING_APP : mkvmerge v7.5.0 (;Glass Culture;) 32bit built on Jan 4 2015 16: 37: 25
    _STATISTICS_WRITING_DATE_UTC : 2015-01-28 13: 10: 53
    _STATISTICS_TAGS : BPS DURATION NUMBER_OF_FRAMES NUMBER_OF_BYTES
    Видео
    Идентификатор : 1
    Формат : AVC
    Формат/Информация : Advanced Video Codec
    Профиль формата : High@L4.1
    Параметр CABAC формата : Да
    Параметр ReFrames формата : 10 кадров
    Идентификатор кодека : V_MPEG4/ISO/AVC
    Продолжительность : 1 ч. 39 м.
    Битрейт : 3400 Кбит/сек
    Ширина : 1024 пикселя
    Высота : 430 пикселей
    Соотношение сторон : 2, 40: 1
    Частота кадров : 23, 976 кадра/сек
    Цветовое пространство : YUV
    Субдискретизация насыщенности : 4: 2: 0
    Битовая глубина : 8 бит
    Тип развёртки : Прогрессивная
    Бит/(Пиксели*Кадры) : 0.322
    Размер потока : 2, 27 Гбайт (55%)
    Библиотека кодирования : x264 core 142 r2409+42 04be48a tMod 8-bit@4: 2: 0 X86
    Настройки программы : cabac=1/ref=10/deblock=1: -3: -2/analyse=0x3: 0x133/me=umh/subme=11/psy=1/fade_compensate=0.00/psy_rd=1.00: 0.15/mixed_ref=1/me_range=48/chroma_me=1/trellis=2/8x8dct=1/cqm=0/deadzone=21, 11/fast_pskip=0/chroma_qp_offset=-3/threads=6/lookahead_threads=1/sliced_threads=0/nr=0/decimate=0/interlaced=0/bluray_compat=0/constrained_intra=0/fgo=0/bframes=10/b_pyramid=2/b_adapt=2/b_bias=0/direct=3/weightb=1/open_gop=0/weightp=2/keyint=240/keyint_min=23/scenecut=40/intra_refresh=0/rc=2pass/mbtree=0/bitrate=3400/ratetol=1.0/qcomp=0.60/qpmin=0: 0: 0/qpmax=69: 69: 69/qpstep=4/cplxblur=20.0/qblur=0.5/ip_ratio=1.40/pb_ratio=1.30/aq=2: 1.00/aq-sensitivity=10.00/aq-factor=1.00: 1.00: 1.00/aq2=0/aq3=0
    Язык : English
    Default : Да
    Forced : Нет
    DURATION : 01: 39: 08.943000000
    NUMBER_OF_FRAMES : 142632
    NUMBER_OF_BYTES : 2526685965
    _STATISTICS_WRITING_APP : mkvmerge v7.5.0 (;Glass Culture;) 32bit built on Jan 4 2015 16: 37: 25
    _STATISTICS_WRITING_DATE_UTC : 2015-01-28 13: 10: 53
    _STATISTICS_TAGS : BPS DURATION NUMBER_OF_FRAMES NUMBER_OF_BYTES
    Аудио #1
    Идентификатор : 2
    Формат : AC-3
    Формат/Информация : Audio Coding 3
    Расширение режима : CM (complete main)
    Идентификатор кодека : A_AC3
    Продолжительность : 1 ч. 39 м.
    Вид битрейта : Постоянный
    Битрейт : 448 Кбит/сек
    Каналы : 6 каналов
    Расположение каналов : Front: L C R, Side: L R, LFE
    Частота : 48, 0 КГц
    Битовая глубина : 16 бит
    Метод сжатия : С потерями
    Размер потока : 318 Мбайт (8%)
    Заголовок : Многоголосый (Paradox)
    Язык : Russian
    Default : Да
    Forced : Нет
    Аудио #2
    Идентификатор : 3
    Формат : AC-3
    Формат/Информация : Audio Coding 3
    Расширение режима : CM (complete main)
    Идентификатор кодека : A_AC3
    Продолжительность : 1 ч. 39 м.
    Вид битрейта : Постоянный
    Битрейт : 448 Кбит/сек
    Каналы : 6 каналов
    Расположение каналов : Front: L C R, Side: L R, LFE
    Частота : 48, 0 КГц
    Битовая глубина : 16 бит
    Метод сжатия : С потерями
    Размер потока : 318 Мбайт (8%)
    Заголовок : Матвеев
    Язык : Russian
    Default : Нет
    Forced : Нет
    Аудио #3
    Идентификатор : 4
    Формат : AC-3
    Формат/Информация : Audio Coding 3
    Расширение режима : CM (complete main)
    Идентификатор кодека : A_AC3
    Продолжительность : 1 ч. 39 м.
    Вид битрейта : Постоянный
    Битрейт : 448 Кбит/сек
    Каналы : 6 каналов
    Расположение каналов : Front: L C R, Side: L R, LFE
    Частота : 48, 0 КГц
    Битовая глубина : 16 бит
    Метод сжатия : С потерями
    Размер потока : 318 Мбайт (8%)
    Заголовок : Гаевский
    Язык : Russian
    Default : Нет
    Forced : Нет
    Аудио #4
    Идентификатор : 5
    Формат : AC-3
    Формат/Информация : Audio Coding 3
    Расширение режима : CM (complete main)
    Идентификатор кодека : A_AC3
    Продолжительность : 1 ч. 39 м.
    Вид битрейта : Постоянный
    Битрейт : 384 Кбит/сек
    Каналы : 6 каналов
    Расположение каналов : Front: L C R, Side: L R, LFE
    Частота : 48, 0 КГц
    Битовая глубина : 16 бит
    Метод сжатия : С потерями
    Размер потока : 272 Мбайт (6%)
    Заголовок : Котов
    Язык : Russian
    Default : Нет
    Forced : Нет
    Аудио #5
    Идентификатор : 6
    Формат : AC-3
    Формат/Информация : Audio Coding 3
    Расширение режима : CM (complete main)
    Идентификатор кодека : A_AC3
    Продолжительность : 1 ч. 39 м.
    Вид битрейта : Постоянный
    Битрейт : 384 Кбит/сек
    Каналы : 6 каналов
    Расположение каналов : Front: L C R, Side: L R, LFE
    Частота : 48, 0 КГц
    Битовая глубина : 16 бит
    Метод сжатия : С потерями
    Размер потока : 272 Мбайт (6%)
    Заголовок : RAIM
    Язык : Russian
    Default : Нет
    Forced : Нет
    Аудио #6
    Идентификатор : 7
    Формат : AC-3
    Формат/Информация : Audio Coding 3
    Расширение режима : CM (complete main)
    Идентификатор кодека : A_AC3
    Продолжительность : 1 ч. 39 м.
    Вид битрейта : Постоянный
    Битрейт : 448 Кбит/сек
    Каналы : 6 каналов
    Расположение каналов : Front: L C R, Side: L R, LFE
    Частота : 48, 0 КГц
    Битовая глубина : 16 бит
    Метод сжатия : С потерями
    Размер потока : 318 Мбайт (8%)
    Язык : English
    Default : Нет
    Forced : Нет
    Текст #1
    Идентификатор : 8
    Формат : UTF-8
    Идентификатор кодека : S_TEXT/UTF8
    Идентификатор кодека/Информация : UTF-8 Plain Text
    Язык : Russian
    Default : Нет
    Forced : Нет
    Текст #2
    Идентификатор : 9
    Формат : UTF-8
    Идентификатор кодека : S_TEXT/UTF8
    Идентификатор кодека/Информация : UTF-8 Plain Text
    Язык : English
    Default : Нет
    Forced : Нет
    Меню
    00: 00: 00.000 : : Chapter 01
    00: 06: 19.128 : : Chapter 02
    00: 16: 40.749 : : Chapter 03
    00: 33: 58.077 : : Chapter 04
    00: 43: 34.445 : : Chapter 05
    00: 51: 34.216 : : Chapter 06
    01: 05: 25.212 : : Chapter 07
    01: 19: 35.520 : : Chapter 08
    01: 33: 57.840 : : Chapter 09
    Скриншоты

    Релиз подготовил: Painter

    Онлайн видео Занесло


    Размер скачиваемого торрента: 4.13 GB (4432804624 Bytes)

    Занесло/Redirected (2014) BDRip-AVC | L, A, L1
    загрузка...
    Рейтинг →
     (голосов: 1, оценка 3/5, голосовать можно 1 раз )

    Другие торренты по теме:

  • Занесло / Redirected (2014) WEB-DL 720p | L1
  • Занесло / Redirected (2014) HDRip | L скачать через торрент бесплатно
  • Занесло / Redirected (2014) BDRip | L, L1
  • Занесло / Redirected (2014) BDRip от Twi7ter | A скачать через торрент бесплатно
  • Занесло / Перенаправленный / Redirected (2014) HDRip-AVC | A, L


    • Комментарии (0):

      Информация

      Информация

        Посетители, находящиеся в группе Гости, не могут оставлять комментарии в данной новости.

        ↓ Меню



        ↓ Опрос

        А Вы добавили сайт в закладки?
        Да
        Не


        Top 10 за месяц (Фильмы)