.
Авторизация | Регистрация
Хочешь лучшие торренты? Добавь свой email!
Добавить
» » Кровавый серфинг / Krocodylus (2000) DVDRip от NovaLan | P2 скачать торрент бесплатно




    Кровавый серфинг / Krocodylus (2000) DVDRip от NovaLan | P2 скачать торрент бесплатно

    Опубликовал: Админ | Дата: 13-11-2017, 11:00 | Просмотров: 0



    Снималось в: США
    Создали в: Tapestry Pictures Inc, Trimark Pictures
    Категория жанра: Ужасы, триллер, комедия
    Создали в: 2000
    Время просмотра: 01: 27: 56
    Главный режиссер: Джеймс Д.Р. Хикокс

    Актеры
    Дэкс Миллер, Кейт Фишер, Дункан Регер, Мэтт Борленджи, Джоэль Уэст, Тэрин Райф, Морин Ларрасабаль, Крис Вертидо, Сьюзэн Африка, Арчи Адамос

    Описание фильма
    Кровавый серфинг — катание наперегонки с акулами — новейшее, крайне опасное увлечение любителей экстремальных видов спорта. Чтобы как следует пощекотать себе нервы, компания профессиональных серферов отправилась на Пальмовые острова — далекий тихоокеанский курорт у побережья Юго-Восточной Азии.Но они и не подозревали, что им придется соревноваться с противником, куда более свирепым, чем самые кровожадные акулы-людоеды. Удастся ли им уцелеть в смертельной схватке с жаждущим крови чудовищем, способным с невероятной скоростью передвигаться по морю и суше и в щепки разбивать небольшие морские суда? С десятиметровым чудовищем, аппетит которого столь же огромен, как и его смертоносные челюсти…

    Исходник: DVD9 R1
    Тип релиза: DVDRip
    Перевод текста: Профессиональный (двухголосый закадровый) Екатеринбург Арт
    Контейнер: AVI
    Информация о видео: 720x400 (1.80: 1), 29.970 fps, XviD build 50 ~1594 kbps avg, 0.18 bit/pixel
    Информация о звуке 1: 48 kHz, AC3 Dolby Digital, 3/2 (L, C, R, l, r) + LFE ch, ~384 kbps (русский)
    Информация о звуке 2: 48 kHz, AC3 Dolby Digital, 3/2 (L, C, R, l, r) + LFE ch, ~384 kbps (английский)
    MediaInfo

    Общее
    Полное имя : G: ААА2Кровавый серфинг.avi
    Формат : AVI
    Формат/Информация : Audio Video Interleave
    Размер файла : 1, 46 Гбайт
    Продолжительность : 1 ч. 27 м.
    Общий поток : 2380 Кбит/сек
    Программа кодирования : VirtualDubMod 1.5.10.2 (build 2540/release)
    Библиотека кодирования : VirtualDubMod build 2540/release
    Видео
    Идентификатор : 0
    Формат : MPEG-4 Visual
    Профиль формата : Advanced Simple@L5
    Параметр BVOP формата : 2
    Параметр QPel формата : Нет
    Параметр GMC формата : Без точки перехода
    Параметр матрицы формата : Default (MPEG)
    Идентификатор кодека : XVID
    Идентификатор кодека/Подсказка : XviD
    Продолжительность : 1 ч. 27 м.
    Битрейт : 1595 Кбит/сек
    Ширина : 720 пикселей
    Высота : 400 пикселей
    Соотношение сторон : 16: 9
    Частота кадров : 29, 970 кадров/сек
    Цветовое пространство : YUV
    Субдискретизация насыщенности : 4: 2: 0
    Битовая глубина : 8 бит
    Тип развёртки : Прогрессивная
    Метод сжатия : С потерями
    Бит/(Пиксели*Кадры) : 0.185
    Размер потока : 1003 Мбайт (67%)
    Библиотека кодирования : XviD 1.2.1 (UTC 2008-12-04)
    Аудио #1
    Идентификатор : 1
    Формат : AC-3
    Формат/Информация : Audio Coding 3
    Расширение режима : CM (complete main)
    Параметр Endianness формата : Big
    Идентификатор кодека : 2000
    Продолжительность : 1 ч. 27 м.
    Вид битрейта : Постоянный
    Битрейт : 384 Кбит/сек
    Каналы : 6 каналов
    Расположение каналов : Front: L C R, Side: L R, LFE
    Частота : 48, 0 КГц
    Битовая глубина : 16 бит
    Метод сжатия : С потерями
    Размер потока : 242 Мбайт (16%)
    Выравнивание : Разделение по промежуткам
    Продолжительность промежутка : 33 мс. (1, 00 видеокадр)
    Время предзагрузки промежутка : 500 мс.
    Аудио #2
    Идентификатор : 2
    Формат : AC-3
    Формат/Информация : Audio Coding 3
    Расширение режима : CM (complete main)
    Параметр Endianness формата : Big
    Идентификатор кодека : 2000
    Продолжительность : 1 ч. 27 м.
    Вид битрейта : Постоянный
    Битрейт : 384 Кбит/сек
    Каналы : 6 каналов
    Расположение каналов : Front: L C R, Side: L R, LFE
    Частота : 48, 0 КГц
    Битовая глубина : 16 бит
    Метод сжатия : С потерями
    Размер потока : 242 Мбайт (16%)
    Выравнивание : Разделение по промежуткам
    Продолжительность промежутка : 33 мс. (1, 00 видеокадр)
    Время предзагрузки промежутка : 500 мс.

    Скриншоты



    Релиз:
    Залил: YArl

    Онлайн видео Кровавый серфинг


    Размер скачиваемого торрента: 1.46 GB (1570158592 Bytes)

    Кровавый серфинг/Krocodylus (2000) DVDRip от NovaLan | P2
    загрузка...
    Рейтинг →
     (голосов: 1, оценка 4/5, голосовать можно 1 раз )

    Другие торренты по теме:

  • Кровавый серфинг / Krocodylus (2000) DVDRip | P2


    • Комментарии (0):

      Информация

      Информация

        Посетители, находящиеся в группе Гости, не могут оставлять комментарии в данной новости.

        ↓ Меню



        ↓ Опрос

        А Вы добавили сайт в закладки?
        Да
        Не


        Top 10 за месяц (Фильмы)