.
Авторизация | Регистрация
Хочешь лучшие торренты? Добавь свой email!
Добавить
» » Сцены у моря / Ano natsu, ichiban shizukana umi (1991) BDRemux 1080р | P2 скачать торрент бесплатно




    Сцены у моря / Ano natsu, ichiban shizukana umi (1991) BDRemux 1080р | P2 скачать торрент бесплатно

    Опубликовал: Админ | Дата: 13-11-2017, 11:00 | Просмотров: 0



    Детально о кино
    Русское название: Сцены у моря
    Русское название в мировом прокате: Ano natsu, ichiban shizukana umi
    Создали в: 1991
    Категория жанра: драма, мелодрама
    Главный режиссер: Такеши Китано

    Актеры
    Куроудо Маки, Хироко Осима, Сабу Кавахара, Тосидзо Фудзивара, Сусуму Тэрадзима, Кацуя Койсо, Тошио Матсуи, Ясукадзу Иситани, Наоми Кубота, Цуёси Овада

    Описание фильма
    Герой этого фильма, Шигеру, глух и нем с самого рождения. Величественные волны моря вздымаются для Шигеру в абсолютном, магическом безмолвии. И он зачарован ими…
    Однажды Шигеру нашел сломанную доску для серфинга и понял, что это именно то, что он так давно искал. Теперь юноша может слиться с этими прекрасными волнами, слиться навсегда…

    Снималось в: Япония
    Время просмотра: 01: 40: 32
    Перевод текста: Профессиональный (двухголосый закадровый)
    Субтитры: русские, английские
    Оригинальная аудиодорожка: японский
    Файл
    Качество фильма: BDRemux 1080р
    Информация о видео: AVC/1920x1080/16: 9/23.976 fps/26000 kbps/High@L4.1
    Информация о звуке 1: AC3/48.0 KHz/2ch./384kbps/Rus/DVO
    Информация о звуке 2: DTS-HD MA/48.0 KHz/2ch/2048kbps/24bit (DTS Core 48.0 KHz/2ch/1509kbps/24bit) Jap
    Скриншоты

    MediaInfo
    Общее
    Уникальный идентификатор : 213726628652120295288791609903579897989 (0xA0CA405BF93A5769AC42F9F6926FA085)
    Полное имя : A.Scene.at.the.Sea.1991.BDRemux.1080p_by_vedigo.mkv
    Формат : Matroska
    Версия формата : Version 4/Version 2
    Размер файла : 19, 9 Гбайт
    Продолжительность : 1 ч. 40 м.
    Режим общего битрейта : Переменный
    Общий поток : 28, 4 Мбит/сек
    Название фильма : A.Scene.at.the.Sea.1991.BDRemux.1080p_by_vedigo
    Дата кодирования : UTC 2016-10-06 13: 32: 25
    Программа кодирования : mkvmerge v9.4.2 (;So High;) 64bit
    Библиотека кодирования : libebml v1.3.4 + libmatroska v1.4.5
    Видео
    Идентификатор : 1
    Формат : AVC
    Формат/Информация : Advanced Video Codec
    Профиль формата : High@L4.1
    Параметр CABAC формата : Да
    Параметр ReFrames формата : 3 кадра
    Идентификатор кодека : V_MPEG4/ISO/AVC
    Продолжительность : 1 ч. 40 м.
    Вид битрейта : Переменный
    Битрейт : 26, 0 Мбит/сек
    Максимальный битрейт : 31, 0 Мбит/сек
    Ширина : 1920 пикселей
    Высота : 1080 пикселей
    Соотношение сторон : 16: 9
    Режим частоты кадров : Постоянный
    Частота кадров : 23, 976 (24000/1001) кадра/сек
    Стандарт вещания : NTSC
    Цветовое пространство : YUV
    Субдискретизация насыщенности : 4: 2: 0
    Битовая глубина : 8 бит
    Тип развёртки : Прогрессивная
    Бит/(Пиксели*Кадры) : 0.523
    Размер потока : 18, 3 Гбайт (91%)
    Заголовок : A.Scene.at.the.Sea.1991.BDRemux.1080p_by_vedigo
    Default : Да
    Forced : Нет
    Цветовой диапазон : Limited
    Основные цвета : BT.709
    Характеристики трансфера : BT.709
    Коэффициенты матрицы : BT.709
    Аудио #1
    Идентификатор : 2
    Формат : AC-3
    Формат/Информация : Audio Coding 3
    Расширение режима : CM (complete main)
    Параметр Endianness формата : Big
    Идентификатор кодека : A_AC3
    Продолжительность : 1 ч. 40 м.
    Вид битрейта : Постоянный
    Битрейт : 384 Кбит/сек
    Каналы : 2 канала
    Расположение каналов : Front: L R
    Частота : 48, 0 КГц
    Частота кадров : 31, 250 кадров/сек (1536 spf)
    Метод сжатия : С потерями
    Размер потока : 276 Мбайт (1%)
    Заголовок : DVO
    Язык : Russian
    Default : Да
    Forced : Нет
    Аудио #2
    Идентификатор : 3
    Формат : DTS
    Формат/Информация : Digital Theater Systems
    Профиль формата : MA/Core
    Режим : 16
    Параметр Endianness формата : Big
    Идентификатор кодека : A_DTS
    Продолжительность : 1 ч. 40 м.
    Вид битрейта : Переменный/Постоянный
    Битрейт : 2048 Кбит/сек/1509 Кбит/сек
    Каналы : 2 канала
    Расположение каналов : Front: L R
    Частота : 48, 0 КГц
    Частота кадров : 93, 750 кадра/сек (512 spf)
    Битовая глубина : 24 бит
    Метод сжатия : Без потерь/Lossy
    Размер потока : 1, 42 Гбайт (7%)
    Заголовок : Original
    Язык : Japanese
    Default : Нет
    Forced : Нет
    Текст #1
    Идентификатор : 4
    Формат : UTF-8
    Идентификатор кодека : S_TEXT/UTF8
    Идентификатор кодека/Информация : UTF-8 Plain Text
    Продолжительность : 1 ч. 37 м.
    Битрейт : 28 бит/сек
    Count of elements : 373
    Размер потока : 20, 7 Кбайт (0%)
    Заголовок : Subtitle rus
    Язык : Russian
    Default : Нет
    Forced : Нет
    Текст #2
    Идентификатор : 5
    Формат : UTF-8
    Идентификатор кодека : S_TEXT/UTF8
    Идентификатор кодека/Информация : UTF-8 Plain Text
    Продолжительность : 1 ч. 38 м.
    Битрейт : 11 бит/сек
    Count of elements : 369
    Размер потока : 8, 29 Кбайт (0%)
    Заголовок : Subtitle eng
    Язык : English
    Default : Нет
    Forced : Нет
    Меню
    00: 00: 00.000 : en: 00: 00: 00.000
    00: 04: 17.048 : en: 00: 04: 17.048
    00: 18: 48.961 : en: 00: 18: 48.961
    00: 31: 57.499 : en: 00: 31: 57.499
    00: 42: 53.321 : en: 00: 42: 53.321
    00: 48: 10.638 : en: 00: 48: 10.638
    00: 57: 05.213 : en: 00: 57: 05.213
    01: 03: 41.776 : en: 01: 03: 41.776
    01: 12: 35.017 : en: 01: 12: 35.017
    01: 22: 06.839 : en: 01: 22: 06.839
    01: 25: 59.696 : en: 01: 25: 59.696
    01: 34: 53.813 : en: 01: 34: 53.813


    Онлайн видео Сцены у моря


    Размер скачиваемого торрента: 19.95 GB (21418875174 Bytes)

    Сцены у моря/Ano natsu, ichiban shizukana umi (1991) BDRemux 1080р | P2
    загрузка...
    Рейтинг →
     (голосов: 1, оценка 5/5, голосовать можно 1 раз )

    Другие торренты по теме:

  • Страх сцены / Боязнь сцены / Stage Fright (2014) WEB-DLRip | L1
  • Страх сцены / Боязнь сцены / Stage Fright скачать через торрент бесплатно
  • Герои Сцены / Heroes of Scene (2013) PC
  • Скуби-Ду! Боязнь Сцены / Scooby-Doo! Stage Fright (2013) WEB-DLRip | D
  • 33 сцены из жизни / 33 sceny z zycia (2008) DVDRip от ClubTorrent
  • Скуби-Ду! Боязнь Сцены Scooby-Doo! Stage Fright ( 2013) WEB-DLRip-AVC от ~ F-Torrents ~
  • Скуби-Ду! Боязнь Сцены / Scooby-Doo! Stage Fright (2013) DVD5 от New-Team | D | Сжатый скачать через торрент бесплатно
  • Скуби-Ду! Боязнь Сцены / Scooby-Doo! Stage Fright (2013) DVD9 от New-Team | D | Лицензия скачать через торрент бесплатно


    • Комментарии (0):

      Информация

      Информация

        Посетители, находящиеся в группе Гости, не могут оставлять комментарии в данной новости.

        ↓ Меню



        ↓ Опрос

        А Вы добавили сайт в закладки?
        Да
        Не


        Top 10 за месяц (Фильмы)