.
Авторизация | Регистрация
Хочешь лучшие торренты? Добавь свой email!
Добавить
» » И карлики начинают с малого / Auch Zwerge haben klein angefangen (1970) BDRip 720p | P скачать торрент бесплатно




    И карлики начинают с малого / Auch Zwerge haben klein angefangen (1970) BDRip 720p | P скачать торрент бесплатно

    Опубликовал: Админ | Дата: 13-11-2017, 11:00 | Просмотров: 0



    Детально о кино
    Русское название: И карлики начинают с малого
    Русское название в мировом прокате: Auch Zwerge haben klein angefangen
    Создали в: 1970
    Категория жанра: драма, комедия
    Главный режиссер: Вернер Херцог

    Актеры
    Хельмут Дёринг, Пауль Глауэр, Гизела Хертвиг, Хертель Минкнер, Гертруда Пиччини, Марианна Заар, Бриджитт Заар, Герд Гикель, Эрна Гшвендтнер, Герхард Маэрц

    Описание фильма
    Как развернутся события в южноамериканской колонии лилипутов, после того как последние взбунтовались? Обернется ли это трагедией или…?

    Снималось в: Германия
    Время просмотра: 01: 36: 00
    Перевод текста: Профессиональный (многоголосый закадровый) Видеоимпульс
    Субтитры: русские, английские
    Оригинальная аудиодорожка: немецкий
    Файл
    Качество фильма: BDRip 720p
    Информация о видео: AVC/960x720/4: 3/24.000 fps/13000 kbps/High@L4.1
    Информация о звуке 1: AC3/48.0 KHz/2ch./384 kbps/Rus/MVO/Видеоимпульс
    Информация о звуке 2: DTS/48.0 KHz/2ch/1509 kbps/24bit) Ger
    Скриншоты
    MediaInfo
    Общее
    Уникальный идентификатор : 188057344601990414753033934745252302703 (0x8D7A86F189FA3E64848851973E328F6F)
    Полное имя : Even.Dwarfs.Started.Small.1970.BDRip.720p_by_vedigo.mkv
    Формат : Matroska
    Версия формата : Version 4/Version 2
    Размер файла : 9, 99 Гбайт
    Продолжительность : 1 ч. 36 м.
    Общий поток : 14, 9 Мбит/сек
    Название фильма : Even.Dwarfs.Started.Small.1970.BDRip.720p_by_vedigo
    Дата кодирования : UTC 2016-09-04 22: 10: 23
    Программа кодирования : mkvmerge v9.4.0 (;Knurl;) 64bit
    Библиотека кодирования : libebml v1.3.4 + libmatroska v1.4.5
    Видео
    Идентификатор : 1
    Формат : AVC
    Формат/Информация : Advanced Video Codec
    Профиль формата : High@L4.1
    Параметр CABAC формата : Да
    Параметр ReFrames формата : 12 кадров
    Идентификатор кодека : V_MPEG4/ISO/AVC
    Продолжительность : 1 ч. 35 м.
    Битрейт : 13, 0 Мбит/сек
    Ширина : 960 пикселей
    Высота : 720 пикселей
    Соотношение сторон : 4: 3
    Режим частоты кадров : Постоянный
    Частота кадров : 24, 000 кадра/сек
    Цветовое пространство : YUV
    Субдискретизация насыщенности : 4: 2: 0
    Битовая глубина : 8 бит
    Тип развёртки : Прогрессивная
    Бит/(Пиксели*Кадры) : 0.784
    Размер потока : 8, 72 Гбайт (87%)
    Заголовок : Even.Dwarfs.Started.Small.1970.BDRip.720p_by_vedigo
    Библиотека кодирования : x264 core 148 r2705 3f5ed56
    Настройки программы : cabac=1/ref=12/deblock=1: -3: -3/analyse=0x3: 0x133/me=umh/subme=11/psy=1/psy_rd=1.00: 0.10/mixed_ref=1/me_range=48/chroma_me=1/trellis=2/8x8dct=1/cqm=0/deadzone=21, 11/fast_pskip=0/chroma_qp_offset=-3/threads=12/lookahead_threads=3/sliced_threads=0/nr=0/decimate=1/interlaced=0/bluray_compat=0/constrained_intra=0/bframes=13/b_pyramid=2/b_adapt=2/b_bias=0/direct=3/weightb=1/open_gop=0/weightp=2/keyint=250/keyint_min=23/scenecut=40/intra_refresh=0/rc_lookahead=40/rc=2pass/mbtree=0/bitrate=13000/ratetol=1.0/qcomp=0.60/qpmin=0/qpmax=69/qpstep=4/cplxblur=20.0/qblur=0.5/vbv_maxrate=50000/vbv_bufsize=62500/nal_hrd=none/filler=0/ip_ratio=1.40/pb_ratio=1.30/aq=1: 0.90
    Default : Да
    Forced : Нет
    Аудио #1
    Идентификатор : 2
    Формат : AC-3
    Формат/Информация : Audio Coding 3
    Расширение режима : CM (complete main)
    Параметр Endianness формата : Big
    Идентификатор кодека : A_AC3
    Продолжительность : 1 ч. 36 м.
    Вид битрейта : Постоянный
    Битрейт : 384 Кбит/сек
    Каналы : 2 канала
    Расположение каналов : Front: L R
    Частота : 48, 0 КГц
    Частота кадров : 31, 250 кадров/сек (1536 spf)
    Метод сжатия : С потерями
    Размер потока : 264 Мбайт (3%)
    Заголовок : MVO @ Видеоимпульс
    Язык : Russian
    Default : Да
    Forced : Нет
    Аудио #2
    Идентификатор : 3
    Формат : DTS
    Формат/Информация : Digital Theater Systems
    Режим : 16
    Параметр Endianness формата : Big
    Идентификатор кодека : A_DTS
    Продолжительность : 1 ч. 36 м.
    Вид битрейта : Постоянный
    Битрейт : 1509 Кбит/сек
    Каналы : 2 канала
    Расположение каналов : Front: L R
    Частота : 48, 0 КГц
    Частота кадров : 93, 750 кадра/сек (512 spf)
    Битовая глубина : 24 бит
    Метод сжатия : С потерями
    Размер потока : 1, 01 Гбайт (10%)
    Заголовок : Original
    Язык : German
    Default : Нет
    Forced : Нет
    Текст #1
    Идентификатор : 4
    Формат : UTF-8
    Идентификатор кодека : S_TEXT/UTF8
    Идентификатор кодека/Информация : UTF-8 Plain Text
    Продолжительность : 1 ч. 32 м.
    Битрейт : 31 бит/сек
    Count of elements : 390
    Размер потока : 21, 6 Кбайт (0%)
    Заголовок : Subtitle rus @ Видеоимпульс
    Язык : Russian
    Default : Нет
    Forced : Нет
    Текст #2
    Идентификатор : 5
    Формат : UTF-8
    Идентификатор кодека : S_TEXT/UTF8
    Идентификатор кодека/Информация : UTF-8 Plain Text
    Продолжительность : 1 ч. 32 м.
    Битрейт : 19 бит/сек
    Count of elements : 390
    Размер потока : 12, 9 Кбайт (0%)
    Заголовок : Subtitle eng
    Язык : English
    Default : Нет
    Forced : Нет
    Меню
    00: 00: 00.000 : en: 00: 00: 00.000
    00: 08: 10.625 : en: 00: 08: 10.625
    00: 19: 29.000 : en: 00: 19: 29.000
    00: 30: 55.292 : en: 00: 30: 55.292
    00: 34: 48.875 : en: 00: 34: 48.875
    00: 40: 06.375 : en: 00: 40: 06.375
    00: 45: 55.542 : en: 00: 45: 55.542
    00: 57: 44.417 : en: 00: 57: 44.417
    01: 09: 04.792 : en: 01: 09: 04.792
    01: 17: 01.167 : en: 01: 17: 01.167
    01: 24: 20.000 : en: 01: 24: 20.000
    01: 31: 15.375 : en: 01: 31: 15.375


    Онлайн видео И карлики начинают с малого


    Размер скачиваемого торрента: 9.99 GB (10723588938 Bytes)

    И карлики начинают с малого/Auch Zwerge haben klein angefangen (1970) BDRip 720p | P
    загрузка...
    Рейтинг →
     (голосов: 1, оценка 5/5, голосовать можно 1 раз )

    Другие торренты по теме:



      Комментарии (0):

      Информация

      Информация

        Посетители, находящиеся в группе Гости, не могут оставлять комментарии в данной новости.

        ↓ Меню



        ↓ Опрос

        А Вы добавили сайт в закладки?
        Да
        Не


        Top 10 за месяц (Фильмы)